<?xml version="1.0" standalone="no"?>
<!DOCTYPE svg PUBLIC "-//W3C//DTD SVG 1.1//EN" "http://www.w3.org/Graphics/SVG/1.1/DTD/svg11.dtd" >
<svg xmlns="http://www.w3.org/2000/svg">
  <metadata>Created by iconfont</metadata>
  <defs>
  <font id="iconfont" horiz-adv-x="1024">
    <font-face
      font-family="iconfont"
      font-weight="400"
      font-stretch="normal"
      units-per-em="1024"
      ascent="896"
      descent="-128"
    />
      <missing-glyph />
      
      <glyph glyph-name="maikefeng" unicode="&#58975;" d="M511.752 825.5c-86.605 0-156.835-69.734-156.835-155.747l0-273.812c0-86.013 70.23-155.748 156.835-155.748 86.602 0 156.832 69.735 156.832 155.748L668.584 669.753C668.584 755.766 598.354 825.5 511.752 825.5L511.752 825.5 511.752 825.5zM243.854 434.898c-18.051 0-32.649-14.496-32.649-32.451 0-2.269 0.197-4.436 0.689-6.506l-0.689 0c0-151.605 113.922-276.578 261.386-295.713l0-80.687-52.275 0c-21.702 0-39.257-17.458-39.257-38.964 0-21.499 17.555-38.957 39.257-38.957l182.969 0c21.701 0 39.256 17.458 39.256 38.957 0 21.506-17.555 38.964-39.256 38.964L551.01 19.541l0 80.687c143.119 18.543 254.383 137.002 260.691 282.688 0.396 2.072 0.695 4.243 0.695 6.512 0 0.79-0.197 1.479-0.197 2.167 0 1.483 0.197 2.86 0.197 4.345l-0.695 0c-3.058 14.795-16.172 25.94-32.057 25.94-15.782 0-28.999-11.145-32.057-25.94l-0.688 0c0-129.019-105.344-233.572-235.249-233.572-129.903 0-235.249 104.554-235.249 233.572l-0.689 0c0.396 2.07 0.689 4.237 0.689 6.506C276.503 420.402 261.906 434.898 243.854 434.898L243.854 434.898 243.854 434.898zM243.854 434.898"  horiz-adv-x="1024" />
      
      <glyph glyph-name="yiwanchengdingdan" unicode="&#58950;" d="M824.8-107.2H203.2c-12.8 0-25.6 2.4-37.6 7.2-11.2 4.8-21.6 12-30.4 20.8-8.8 8.8-16 19.2-20.8 30.4-4.8 12-7.2 24-7.2 37.6V636c0 12.8 2.4 25.6 7.2 37.6 4.8 11.2 12 21.6 20.8 30.4 8.8 8.8 19.2 16 30.4 20.8 12 4.8 24 7.2 37.6 7.2h94.4v-48H203.2c-26.4 0-48-21.6-48-48v-647.2c0-26.4 21.6-48 48-48h621.6c26.4 0 48 21.6 48 48V636c0 26.4-21.6 48-48 48H730.4v48H824c12.8 0 25.6-2.4 37.6-7.2 11.2-4.8 21.6-12 30.4-20.8 8.8-8.8 16-19.2 20.8-30.4 4.8-12 7.2-24 7.2-37.6v-647.2c0-12.8-2.4-25.6-7.2-37.6-4.8-11.2-12-21.6-20.8-30.4-8.8-8.8-19.2-16-30.4-20.8-11.2-4.8-24-7.2-36.8-7.2zM752.8 588H274.4V743.2c0 32.8 26.4 60 60 60h61.6c22.4 44 67.2 72.8 117.6 72.8 50.4 0 95.2-28.8 117.6-72.8h61.6c32.8 0 60-26.4 60-60v-155.2m-430.4 48h382.4V743.2c0 6.4-5.6 12-12 12H598.4l-5.6 16c-12 33.6-43.2 56-79.2 56s-67.2-22.4-79.2-56l-5.6-16H334.4c-6.4 0-12-5.6-12-12v-107.2zM432.8 104c-6.4 0-12 2.4-16.8 7.2L252.8 274.4c-4.8 4.8-7.2 10.4-7.2 16.8s2.4 12 7.2 16.8c4.8 4.8 10.4 7.2 16.8 7.2s12-2.4 16.8-7.2L418.4 176c4-4 8.8-5.6 13.6-5.6s10.4 1.6 13.6 5.6l295.2 295.2c4.8 4.8 10.4 7.2 16.8 7.2s12-2.4 16.8-7.2c9.6-9.6 9.6-24 0-33.6L449.6 111.2c-4.8-4-11.2-7.2-16.8-7.2z"  horiz-adv-x="1024" />
      
      <glyph glyph-name="task-copy" unicode="&#58888;" d="M906.259135-71.579295h-808.856632c-31.569205 0-57.252487 25.683283-57.252487 57.252488v808.856631c0 31.569205 25.683283 57.252487 57.252487 57.252488h808.856632c31.569205 0 57.252487-25.683283 57.252487-57.252488v-808.856631c0-31.569205-25.683283-57.252487-57.252487-57.252488z m-808.856632 874.549539a8.452623 8.452623 0 0 1-8.44042-8.44042v-808.856631c0-4.657485 3.787003-8.44042 8.44042-8.44042h808.856632a8.448555 8.448555 0 0 1 8.44042 8.44042v808.856631a8.452623 8.452623 0 0 1-8.44042 8.44042h-808.856632zM196.755399 585.349778m-50.845904 0a50.845903 50.845903 0 1 1 101.691807 0 50.845903 50.845903 0 1 1-101.691807 0ZM280.14268 611.789647h581.677136v-48.812067H280.14268zM280.14268 404.338361h581.677136v-48.812067H280.14268zM280.14268 196.887075h581.677136v-48.812067H280.14268zM196.755399 381.966164m-50.845904 0a50.845903 50.845903 0 1 1 101.691807 0 50.845903 50.845903 0 1 1-101.691807 0ZM196.755399 174.514878m-50.845904 0a50.845903 50.845903 0 1 1 101.691807 0 50.845903 50.845903 0 1 1-101.691807 0Z"  horiz-adv-x="1024" />
      
      <glyph glyph-name="shenfenzheng" unicode="&#59080;" d="M955.733333 759.466667H68.266667c-18.88 0-34.133333-15.253333-34.133334-34.133334v-682.666666c0-18.88 15.253333-34.133333 34.133334-34.133334h887.466666c18.88 0 34.133333 15.253333 34.133334 34.133334V725.333333c0 18.88-15.253333 34.133333-34.133334 34.133334z m-42.666666-674.133334H110.933333V682.666667h802.133334v-597.333334zM616.853333 422.4h131.626667c1.386667 0 2.453333 3.84 2.453333 8.533333v51.2c0 4.693333-1.066667 8.533333-2.453333 8.533334H616.853333c-1.386667 0-2.453333-3.84-2.453333-8.533334v-51.2c0-4.693333 1.066667-8.533333 2.453333-8.533333z m5.12-153.6h198.08c4.16 0 7.573333 3.84 7.573334 8.533333v51.2c0 4.693333-3.413333 8.533333-7.573334 8.533334H621.973333c-4.16 0-7.573333-3.84-7.573333-8.533334v-51.2c0-4.693333 3.413333-8.533333 7.573333-8.533333zM204.8 212.266667h46.826667c4.48 0 8.106667 3.52 8.426666 8 4.053333 53.866667 49.066667 96.533333 103.68 96.533333s99.626667-42.666667 103.68-96.533333c0.32-4.48 3.946667-8 8.426667-8H522.666667c4.906667 0 8.746667 4.053333 8.533333 8.96-2.986667 56.853333-34.133333 106.346667-79.573333 134.506666 19.306667 21.226667 31.04 49.493333 31.04 80.533334 0 66.026667-53.226667 119.466667-118.826667 119.466666s-118.826667-53.44-118.826667-119.466666c0-31.04 11.733333-59.2 31.04-80.533334-45.546667-28.266667-76.586667-77.653333-79.573333-134.506666-0.426667-4.906667 3.413333-8.96 8.32-8.96z m158.933333 279.466666c30.4 0 55.146667-24.853333 55.146667-55.466666s-24.746667-55.466667-55.146667-55.466667-55.146667 24.853333-55.146666 55.466667 24.746667 55.466667 55.146666 55.466666z"  horiz-adv-x="1024" />
      
      <glyph glyph-name="shipinjianshi-bofanganniu" unicode="&#58994;" d="M512 864a480 480 0 1 1 480-480A480.54 480.54 0 0 1 512 864z m0-900a420 420 0 1 0 420 420 420.48 420.48 0 0 0-420-420zM731.45 419.28L428.27 617.19a42.12 42.12 0 0 1-65.19-35.25v-395.88a42.12 42.12 0 0 1 65.16-35.28l303.24 197.94a42.15 42.15 0 0 1-0.03 70.56z m-308.4-200.25V548.94l252.72-164.97z"  horiz-adv-x="1024" />
      
      <glyph glyph-name="weixin1" unicode="&#58928;" d="M512-128C229.23-128 0 101.23 0 384S229.23 896 512 896s512-229.23 512-512-229.23-512-512-512z m107.91 626.371H640c-20.09 94.744-115.566 162.962-225.304 162.962-124.002 0-222.696-86.04-222.696-198.607 0-65.097 34.572-115.492 89.43-156.94l-23.114-71.12 77.995 41.448a354.748 354.748 0 0 1 77.97-11.8h20.114a133.608 133.608 0 0 0-5.851 47.47 193.122 193.122 0 0 0 57.466 134.412 181.37 181.37 0 0 0 133.096 52.175h0.804z m-115.273 56.296c15.848 0 28.696-14.288 28.696-31.915s-12.848-31.915-28.696-31.915c-17.652-1.95-33.402 12.313-35.304 31.94 0 22.284 17.457 31.89 34.719 31.89h0.585z m-171.032-63.878c-17.555-1.463-33.012 12.653-34.938 31.89 1.926 19.212 17.383 33.329 34.938 31.89 16.042 0 29.062-14.287 29.062-31.915 0-17.603-13.02-31.89-29.062-31.89zM832 321.195c0 92.233-90.136 169.472-192 169.472-107.764 0-192-77.24-192-169.448 0-92.257 84.456-169.496 192-169.496a264.24 264.24 0 0 1 66.828 11.873L767.586 128l-17.408 59.538c49.42 35.596 81.017 83.286 81.017 133.852l0.805-0.195zM573.562 341.48c-10.435 0-18.895 9.484-18.895 21.187s8.46 21.211 18.895 21.211c11.727 1.39 22.308-7.997 23.771-21.114-1.39-13.214-11.97-22.698-23.771-21.284z m128-0.098c-10.435 0-18.895 9.509-18.895 21.212 0 11.751 8.46 21.26 18.895 21.26 11.727 1.414 22.308-7.997 23.771-21.139-2.194-12.921-12.58-22.04-24.259-21.333h0.488z"  horiz-adv-x="1024" />
      
      <glyph glyph-name="fuzhi1" unicode="&#58984;" d="M896 725.333333H298.666667c-70.4 0-128-57.6-128-128v-597.333333c0-70.4 57.6-128 128-128h597.333333c70.4 0 128 57.6 128 128V597.333333c0 70.4-57.6 128-128 128m0-85.333333c23.125333 0 42.666667-19.541333 42.666667-42.666667v-597.333333c0-23.125333-19.541333-42.666667-42.666667-42.666667H298.666667c-23.125333 0-42.666667 19.541333-42.666667 42.666667V597.333333c0 23.125333 19.541333 42.666667 42.666667 42.666667h597.333333M170.666667 128h-42.666667c-23.125333 0-42.666667 19.541333-42.666667 42.666667V768c0 23.125333 19.541333 42.666667 42.666667 42.666667h597.333333c23.125333 0 42.666667-19.541333 42.666667-42.666667v-42.496h85.333333V768c0 70.4-57.6 128-128 128H128C57.6 896 0 838.4 0 768v-597.333333c0-70.4 57.6-128 128-128h42.666667V128zM554.666667 128V469.333333c0 23.466667 19.2 42.666667 42.666666 42.666667s42.666667-19.2 42.666667-42.666667v-341.333333c0-23.466667-19.2-42.666667-42.666667-42.666667s-42.666667 19.2-42.666666 42.666667M768 256H426.666667c-23.466667 0-42.666667 19.2-42.666667 42.666667s19.2 42.666667 42.666667 42.666666h341.333333c23.466667 0 42.666667-19.2 42.666667-42.666666s-19.2-42.666667-42.666667-42.666667"  horiz-adv-x="1024" />
      
      <glyph glyph-name="dingwei1" unicode="&#58911;" d="M712.0896 169.90207999999996a30.72 30.72 0 0 0 39.79264 17.42848c73.48224-28.672 118.51776-70.28736 118.51776-121.91744 0-97.75104-166.2976-162.69312-368.64-162.69312s-368.64 64.94208-368.64 162.69312c0 51.63008 45.056 93.22496 118.51776 121.91744a30.72 30.72 0 0 0 22.34368-57.22112c-52.4288-20.48-79.42144-45.40416-79.42144-64.7168 0-48.0256 136.27392-101.23264 307.2-101.23264s307.2 53.20704 307.2 101.25312c0 19.29216-26.97216 44.21632-79.42144 64.69632a30.72 30.72 0 0 0-17.44896 39.79264zM279.83872 673.2390399999999l-3.54304-3.4816-3.4816-3.54304c-116.28544-120.15616-113.13152-311.82848 7.02464-428.09344l160.82944-155.648a87.8592 87.8592 0 0 1 122.18368 0l160.82944 155.648c2.37568 2.29376 4.7104 4.64896 7.02464 7.02464 116.28544 120.15616 113.13152 311.82848-7.02464 428.09344-123.71968 119.74656-320.1024 119.74656-443.84256 0z m42.72128-44.15488c99.90144 96.68608 258.49856 96.68608 358.4 0 95.76448-92.672 98.28352-245.4528 5.59104-341.21728l-2.7648-2.82624-163.6352-158.4128a26.4192 26.4192 0 0 0-36.7616 0l-160.82944 155.648c-95.76448 92.672-98.28352 245.4528-5.59104 341.21728l5.59104 5.59104zM501.76 588.8a143.36 143.36 0 1 1 0-286.72 143.36 143.36 0 0 1 0 286.72z m0-61.44a81.92 81.92 0 1 0 0-163.84 81.92 81.92 0 0 0 0 163.84z"  horiz-adv-x="1024" />
      
      <glyph glyph-name="tianchongxing-" unicode="&#58938;" d="M455.466667-19.84c-24.106667 0-43.733333 19.52-43.733334 43.733333V191.893333c0 24.106667 19.52 43.733333 43.733334 43.733334 24.106667 0 43.733333-19.52 43.733333-43.733334v-168.106666c0-24.106667-19.52-43.626667-43.733333-43.626667zM570.666667 36.906667c-24.106667 0-43.733333 19.52-43.733334 43.733333v54.613333c0 24.106667 19.52 43.733333 43.733334 43.733334 24.106667 0 43.733333-19.52 43.733333-43.733334v-54.613333c0-24.213333-19.52-43.733333-43.733333-43.733333zM356.053333 57.066667c-5.866667 21.866667-9.066667 44.8-9.066666 68.48 0 24.213333 3.306667 47.68 9.386666 69.866666l-0.106666 0.213334c2.453333 10.026667 3.733333 20.586667 3.733333 31.36 0 73.92-59.946667 133.866667-133.866667 133.866666s-133.866667-59.946667-133.866666-133.866666v-203.733334c0-73.92 59.946667-133.866667 133.866666-133.866666s133.866667 59.946667 133.866667 133.866666c0 11.52-1.493333 22.72-4.16 33.28l0.213333 0.533334zM925.333333 226.133333v0.32 0.533334c0 73.92-59.946667 133.866667-133.866666 133.866666s-133.866667-59.946667-133.866667-133.866666c0-10.773333 1.28-21.333333 3.733333-31.36l-0.106666-0.213334c6.08-22.293333 9.386667-45.653333 9.386666-69.866666 0-23.68-3.2-46.613333-9.066666-68.48l0.213333-0.426667c-2.773333-10.666667-4.16-21.866667-4.16-33.28 0-73.92 59.946667-133.866667 133.866667-133.866667s133.866667 59.946667 133.866666 133.866667V24.533333 226.133333zM512.32 802.88c225.706667 0 408.64-182.933333 408.64-408.64 0-60.266667-13.013333-117.44-36.48-168.96l15.68-140.266667c67.733333 84.8 108.16 192.32 108.16 309.226667 0 273.92-222.08 496-496 496s-496-222.08-496-496c0-115.733333 39.68-222.186667 106.026667-306.56l-4.373334 61.44 17.92 85.653333c-20.8 48.96-32.32 102.826667-32.32 159.466667 0.106667 225.706667 183.04 408.64 408.746667 408.64z"  horiz-adv-x="1024" />
      
      <glyph glyph-name="yinpinwenjian" unicode="&#60013;" d="M737.638021 883.044504c38.836148 1.825299 74.953766-10.757613 103.304154-33.010726H861.525333a155.344593 155.344593 0 0 0 155.150412-147.577363L1016.869926 694.689185v-621.37837a155.344593 155.344593 0 0 0-147.577363-155.150412L861.525333-82.033778h-20.583158a154.56787 154.56787 0 0 0-86.138577-32.855381l-9.786709-0.310689-7.378868 0.19418-582.542222 27.72901a155.344593 155.344593 0 0 0-147.771544 147.189002L7.130074 67.91259V700.08741a155.344593 155.344593 0 0 0 140.004314 154.567869l7.961411 0.621379 582.542222 27.72901z m9.786709-77.555788l-6.097275-0.077672-582.542222-27.72901a77.672296 77.672296 0 0 1-73.788682-71.69153L84.80237 700.08741v-632.17482a77.672296 77.672296 0 0 1 68.118604-77.089754l5.825422-0.50487 584.406358-27.806682 7.650721 0.194181a77.283935 77.283935 0 0 1 42.680927 16.73838l1.864135 1.631118c2.058316 2.563186 4.388485 4.815682 6.990507 6.75749 11.262483 12.233387 18.563679 28.117371 20.078288 45.67131l0.271853 6.640981V729.680555l-0.582542 7.650721a77.283935 77.283935 0 0 1-19.26273 42.331401 36.428307 36.428307 0 0 0-8.155591 7.76723 76.895573 76.895573 0 0 1-40.117741 17.476267l-7.145851 0.582542z m148.625939-41.205153l1.359265-6.213784c0.970904-4.932191 1.708791-9.98089 2.213661-15.107262l0.582542-7.728393 0.155344-7.378868v-687.710512c0-12.544076-1.475774-24.738626-4.271976-36.428307a77.672296 77.672296 0 0 1 42.913944 63.807792L939.19763 73.310815V694.689185c0 28.350388-15.146098 53.089015-37.787573 66.64283l-5.359388 2.951548z m-228.939093-177.092836L667.344593 248.073481a97.09037 97.09037 0 1 0-77.672297 95.148563v194.452594l-194.18074-29.398964v-299.038341a97.09037 97.09037 0 1 0-77.672297 95.148563v237.288865a38.836148 38.836148 0 0 0 28.73875 37.476883l4.271976 0.893232 271.853037 41.166317a38.836148 38.836148 0 0 0 44.428554-34.020466zM298.401185 228.655407a19.418074 19.418074 0 1 1 0-38.836148 19.418074 19.418074 0 0 1 0 38.836148z m271.853037 38.836149a19.418074 19.418074 0 1 1 0-38.836149 19.418074 19.418074 0 0 1 0 38.836149z"  horiz-adv-x="1024" />
      
      <glyph glyph-name="tingyong-zanting" unicode="&#58959;" d="M512 731.614288a347.614288 347.614288 0 1 1 347.614288-347.614288A347.614288 347.614288 0 0 1 512 731.614288z m0-625.705719a278.091431 278.091431 0 1 0 278.091431 278.091431 278.091431 278.091431 0 0 0-278.091431-278.091431zM442.477142 523.045715a34.761429 34.761429 0 0 1-34.761429-34.761428v-208.568573a34.761429 34.761429 0 0 1 69.522858 0V488.284287a34.761429 34.761429 0 0 1-34.761429 34.761428zM581.522858 523.045715a34.761429 34.761429 0 0 1-34.761429-34.761428v-208.568573a34.761429 34.761429 0 0 1 69.522857 0V488.284287a34.761429 34.761429 0 0 1-34.761428 34.761428z"  horiz-adv-x="1024" />
      
      <glyph glyph-name="self-arrow-down" unicode="&#58898;" d="M14.903776 910.592157l500.94877-544.445256 493.244972 547.260876z"  horiz-adv-x="1024" />
      
      <glyph glyph-name="arrow-up" unicode="&#59032;" d="M994.34496-120.733241H27.790905l483.277027 536.171861L994.34496-120.733241z m0 0"  horiz-adv-x="1024" />
      
      <glyph glyph-name="shoucang1" unicode="&#59029;" d="M334.976-20.608a75.52 75.52 0 0 0-104.64 25.536 77.312 77.312 0 0 0-8.96 57.408l46.464 198.272a13.12 13.12 0 0 1-4.032 12.8L111.68 406.08a77.184 77.184 0 0 0-8.32 107.776c13.056 15.424 31.68 25.088 51.84 26.752l199.68 16.256a12.032 12.032 0 0 1 9.984 7.616l76.928 188.16a75.648 75.648 0 0 0 140.352 0l76.928-188.16a11.968 11.968 0 0 1 10.048-7.68l199.68-16.192a76.48 76.48 0 0 0 69.632-82.56c-1.6-20.032-10.944-38.72-26.112-51.968l-152.128-132.608a13.12 13.12 0 0 1-4.032-12.8l46.464-198.272c9.6-40.96-15.36-82.304-56.128-92.16-19.648-4.8-40.32-1.472-57.536 9.152l-170.944 106.24a11.328 11.328 0 0 1-12.032 0l-171.008-106.24z m216.832 160.576l170.944-106.24c2.624-1.6 5.76-2.112 8.64-1.408a12.736 12.736 0 0 1 8.96 15.36l-46.528 198.272c-6.528 27.84 2.816 56.96 24.32 75.776l152.128 132.544a12.928 12.928 0 0 1 4.352 8.768 12.48 12.48 0 0 1-11.008 13.696l-199.68 16.256a75.968 75.968 0 0 0-64.064 47.168L522.88 728.32a11.648 11.648 0 0 1-21.888 0L424.128 540.16c-10.752-26.496-35.52-44.8-64.064-47.168l-199.68-16.256a11.712 11.712 0 0 1-8-4.16 13.248 13.248 0 0 1 1.28-18.304L305.92 321.728c21.504-18.816 30.848-48 24.32-75.776l-46.528-198.208a13.312 13.312 0 0 1 1.536-9.856 11.52 11.52 0 0 1 16-4.16l171.008 106.24c24.384 15.168 55.232 15.168 79.616 0z"  horiz-adv-x="1024" />
      
      <glyph glyph-name="chakan" unicode="&#59030;" d="M512 276.608c29.248 0 59.776 45.824 59.776 107.584 0 61.76-30.528 107.648-59.776 107.648-29.248 0-59.776-45.888-59.776-107.648S482.752 276.608 512 276.608z m0-71.68c-76.416 0-131.52 82.56-131.52 179.264 0 96.704 55.104 179.328 131.52 179.328 76.416 0 131.52-82.56 131.52-179.328 0-96.64-55.04-179.328-131.52-179.328z m0-71.808c169.6 0 346.688 151.04 346.688 251.072 0 100.16-177.024 251.072-346.688 251.072-164.352 0-346.688-160.256-346.688-251.072 0-90.752 182.336-251.072 346.688-251.072z m0-71.68c-202.048 0-418.432 190.144-418.432 322.752S309.888 707.008 512 707.008c206.912 0 418.432-180.288 418.432-322.816 0-142.464-211.52-322.752-418.432-322.752z"  horiz-adv-x="1024" />
      
      <glyph glyph-name="fenxiang1" unicode="&#59031;" d="M544.768 779.264a34.88 34.88 0 0 0 0-69.632A338.496 338.496 0 1 1 883.2 371.2a34.88 34.88 0 0 0 69.632 0 407.296 407.296 0 0 0-407.552-407.552A407.296 407.296 0 0 0 137.728 371.2a406.656 406.656 0 0 0 407.04 408.064z m209.92-173.056a33.984 33.984 0 1 0 48.64 47.616l59.392-59.904a46.08 46.08 0 0 0 0-65.024l-59.904-59.904a33.984 33.984 0 1 0-48.128 48.128l10.24 10.24h-44.032c-119.296 0-160.256-50.688-160.256-204.8a33.728 33.728 0 1 0-67.584 0c0 190.464 69.632 272.896 227.84 272.896h44.032l-10.24 10.752z"  horiz-adv-x="1024" />
      
      <glyph glyph-name="kefu1" unicode="&#59028;" d="M523.968 810.624c278.784 0 458.88-222.208 458.88-425.984 0-242.88-197.44-448-458.88-448-84.16 0-150.4 16.576-221.568 55.36l-88.64-50.176c-27.776-8.448-50.496-5.12-68.032 9.856-17.536 14.976-25.088 34.688-22.72 59.2 9.984 35.392 19.84 70.848 29.696 106.368C123.008 154.176 64 239.488 64 384.64c0 203.776 181.12 425.984 459.968 425.984z m-1.28-64C304 746.624 128 578.816 128 373.312c0-77.376 24.896-151.168 70.656-213.184l5.376-7.168 18.24-23.488-36.992-128.768a0.32 0.32 0 0 1 0.064-0.384 0.32 0.32 0 0 1 0.448 0l113.408 63.872 26.752-14.592a409.856 409.856 0 0 1 196.736-49.664c218.56 0 394.624 167.808 394.624 373.376 0 205.504-176 373.312-394.624 373.312z m-192-320a53.312 53.312 0 1 0 0-106.688 53.312 53.312 0 0 0 0 106.688z m182.848 0a53.312 53.312 0 1 0 0-106.688 53.312 53.312 0 0 0 0 106.688z m182.848 0a53.312 53.312 0 1 0 0-106.688 53.312 53.312 0 0 0 0 106.688z"  horiz-adv-x="1024" />
      
      <glyph glyph-name="fenxiang" unicode="&#59026;" d="M549.477165 380.333756l209.790655 209.790654v-46.235416a29.126276 29.126276 0 0 1 58.252551 0V660.394095A29.126276 29.126276 0 0 1 788.394095 689.520371H671.888994a29.126276 29.126276 0 1 1 0-58.252551h46.184496l-209.790654-209.790655a29.126276 29.126276 0 0 1 41.24525-41.143409z m193.292555 86.665944a31.417678 31.417678 0 0 1-19.247783-39.208447h-0.15276a230.4642 230.4642 0 1 0-164.4718 166.763202h0.05092A31.417678 31.417678 0 1 1 576.210198 654.996569V654.996569a293.299556 293.299556 0 1 1 206.53177-205.76797l-0.15276-0.05092a31.417678 31.417678 0 0 1-39.819488 17.822021z"  horiz-adv-x="1024" />
      
      <glyph glyph-name="dingwei" unicode="&#59027;" d="M680.75 316.658203a223.699219 223.699219 0 1 1-337.5 0 35.121094 35.121094 0 0 0 1.792969-2.267578L512 101.976563l166.957031 212.414062a35.332031 35.332031 0 0 0 1.792969 2.267578zM222.382813 463.523438a289.617188 289.617188 0 1 0 508.886718-189.316407L537.839844 28.306641a32.958984 32.958984 0 0 0-51.785156 0L292.783203 274.3125a288.5625 288.5625 0 0 0-70.400391 189.263672zM512 341.970703a121.552734 121.552734 0 1 0 0 243.105469 121.552734 121.552734 0 0 0 0-243.105469z m0 65.917969a55.634766 55.634766 0 1 1 0 111.269531 55.634766 55.634766 0 0 1 0-111.269531z"  horiz-adv-x="1024" />
      
      <glyph glyph-name="guanggao" unicode="&#58996;" d="M209.764352 240.61952l-89.724928 222.138368c-7.8848 20.513792-7.621632 42.962944 0.789504 63.594496 7.989248 19.693568 22.391808 35.400704 40.68352 44.192768L637.52704 799.659008c38.582272 18.638848 82.891776 0.761856 98.610176-39.914496l90.673152-234.271744-48.253952-23.209984-90.673152 234.271744c-4.205568 10.784768-17.660928 14.94528-29.540352 9.320448L182.327296 516.739072c-6.202368-2.988032-11.037696-8.146944-13.61408-14.53568-1.261568-3.165184-3.048448-9.377792-0.525312-15.824896l89.515008-221.787136L209.764352 240.61952zM830.539776-51.328 286.297088-51.328c-43.4688 0-78.844928 39.446528-78.844928 87.91552L207.45216 445.877248c0 48.47104 35.375104 87.917568 78.844928 87.917568l544.242688 0c43.469824 0 78.844928-39.445504 78.844928-87.917568l0-409.289728C909.384704-11.881472 874.0096-51.328 830.539776-51.328zM286.297088 475.183104c-14.507008 0-26.28096-13.12768-26.28096-29.304832L260.016128 36.58752c0-16.115712 11.774976-29.302784 26.28096-29.302784l544.242688 0c14.454784 0 26.281984 13.187072 26.281984 29.302784L856.82176 445.877248c0 16.178176-11.8272 29.304832-26.281984 29.304832L286.297088 475.183104 286.297088 475.183104zM412.449792 202.05056c-7.201792 0-14.139392 4.39808-17.608704 12.075008-4.939776 10.840064-1.051648 24.031232 8.725504 29.541376l225.60256 127.070208c9.618432 5.450752 21.551104 1.173504 26.492928-9.729024 4.885504-10.842112 0.999424-24.032256-8.725504-29.48096L421.281792 204.397568C418.44224 202.81344 415.446016 202.05056 412.449792 202.05056zM495.342592 86.060032c-6.885376 0-13.56288 3.985408-17.188864 11.136-5.36064 10.550272-2.048 23.914496 7.412736 29.948928l230.647808 145.769472c9.25184 5.979136 21.445632 2.341888 26.858496-8.323072 5.415936-10.550272 2.050048-23.914496-7.463936-29.950976L505.013248 88.871936C501.9648 86.938624 498.654208 86.060032 495.342592 86.060032z"  horiz-adv-x="1024" />
      
      <glyph glyph-name="sheying" unicode="&#58880;" d="M270.8 638.7C327.05 638.7 372.5 593.25 372.5 537c0-56.25-45.45-101.7-101.7-101.7-56.25 0-101.7 45.45-101.7 101.7 0 55.8 45.45 101.7 101.7 101.7m0 50.85c-84.15 0-152.55-68.4-152.55-152.55s68.4-152.55 152.55-152.55S423.35 452.85 423.35 537c-0.45 84.15-68.4 152.55-152.55 152.55m328.05-0.45c68.85 0 125.1-56.25 125.1-125.1s-55.8-125.1-125.1-125.1C530 438.9 473.75 495.15 473.75 564s56.25 125.1 125.1 125.1m0 50.4c-97.2 0-175.95-78.75-175.95-175.5 0-97.2 78.75-175.95 175.95-175.95s175.5 78.75 175.5 175.95-78.3 175.5-175.5 175.5m27.45-355.5c27.9 0 50.85-22.95 50.85-50.85v-203.4c0-27.9-22.95-50.85-50.85-50.85H219.95c-27.9 0-50.85 22.95-50.85 50.85v203.4c0 27.9 22.95 50.85 50.85 50.85h406.35m0 50.85H219.95c-55.8 0-101.7-45.9-101.7-101.7v-203.4c0-55.8 45.9-101.7 101.7-101.7h406.35c55.8 0 101.7 45.9 101.7 101.7v203.4c0 55.8-45.9 101.7-101.7 101.7m254.25-367.65c-5.85 0-11.7 2.25-16.65 5.85l-174.6 148.5c-5.85 4.95-9 12.6-9 20.25 0.45 7.65 4.05 14.85 10.35 19.35l174.6 130.5c7.65 5.85 18 6.75 26.55 2.25 8.55-4.5 13.95-13.05 13.95-22.5v-278.55c0-9.9-5.85-18.9-14.85-22.95-3.15-1.8-6.75-2.7-10.35-2.7M746.45 240l108.45-92.25V321l-108.45-81zM678.05 289.5h53.1v-100.35h-53.1z"  horiz-adv-x="1024" />
      
      <glyph glyph-name="jilupian-" unicode="&#59000;" d="M183.296 37.376c-73.728 0-133.632 59.904-133.632 133.632V597.504c0 72.192 60.928 133.632 133.632 133.632H855.04c72.192 0 133.632-60.928 133.632-133.632v-426.496c0-73.728-59.904-133.632-133.632-133.632H183.296z m0 644.096c-46.592 0-83.968-37.888-83.968-83.968v-426.496c0-46.592 37.888-83.968 83.968-83.968H855.04c46.592 0 83.968 37.888 83.968 83.968V597.504c0 46.592-37.888 83.968-83.968 83.968H183.296zM473.6 233.472c-8.192 0-17.408 2.048-24.576 5.632-15.872 8.704-25.6 25.088-25.6 42.496V484.352c0 18.944 9.728 35.328 25.6 42.496l0.512 0.512c7.168 4.096 14.848 6.144 23.04 6.144 9.216 0 18.432-2.56 27.136-8.192L659.456 424.96c14.848-9.216 22.016-23.552 22.016-43.008 0-17.408-8.192-32.768-22.528-43.008L499.2 240.64h-0.512c-5.632-5.12-14.336-7.168-25.088-7.168z m-1.024 49.664l161.792 102.912L472.576 486.4v-203.264z"  horiz-adv-x="1024" />
      
      <glyph glyph-name="shuibei" unicode="&#58949;" d="M722.9375 187.125a140.4 140.4 0 0 0-35.15625 4.6125V463.7625A140.561719 140.561719 0 1 0 722.9375 187.125zM722.9375 159v-105.46875a105.46875 105.46875 0 0 0-105.46875-105.46875H237.78125a105.46875 105.46875 0 0 0-105.46875 105.46875V573.84375a35.15625 35.15625 0 0 0 35.15625 35.15625h520.3125a35.15625 35.15625 0 0 0 35.15625-35.15625v-77.34375a168.75 168.75 0 0 0 0-337.5z m-56.25 379.6875a14.0625 14.0625 0 0 1-14.0625 14.0625H202.625a14.0625 14.0625 0 0 1-14.0625-14.0625v-478.125a56.25 56.25 0 0 1 56.25-56.25h365.625a56.25 56.25 0 0 1 56.25 56.25V538.6875z m56.25-98.4375v-225a112.5 112.5 0 0 1 0 225zM554.1875 651.1875a28.125 28.125 0 0 0-28.125 28.125V791.8125a28.125 28.125 0 0 0 56.25 0v-112.5a28.125 28.125 0 0 0-28.125-28.125z m-126.5625 0a28.125 28.125 0 0 0-28.125 28.125V791.8125a28.125 28.125 0 0 0 56.25 0v-112.5a28.125 28.125 0 0 0-28.125-28.125z m-126.5625 0a28.125 28.125 0 0 0-28.125 28.125V791.8125a28.125 28.125 0 0 0 56.25 0v-112.5a28.125 28.125 0 0 0-28.125-28.125z"  horiz-adv-x="1024" />
      
      <glyph glyph-name="yingshiju" unicode="&#59554;" d="M489.5 721.5c198.765 0 360-159.255 360-355.815 0-133.65-74.52-250.02-184.68-310.86H827a22.5 22.5 0 1 0 0-45H489.5c-198.765 0-360 159.3-360 355.86S290.735 721.5 489.5 721.5z m0-45c-174.015 0-315-139.23-315-310.815 0-171.63 140.985-310.86 315-310.86s315 139.23 315 310.86c0 171.585-140.985 310.815-315 310.815z m0-388.35c40.32 0 73.125-32.4 73.125-72.45 0-40.14-32.805-72.54-73.125-72.54s-73.125 32.4-73.125 72.495 32.805 72.495 73.125 72.495z m0-45a27.81 27.81 0 0 1-28.125-27.45c0-15.165 12.51-27.54 28.125-27.54a27.81 27.81 0 0 1 28.125 27.495 27.81 27.81 0 0 1-28.125 27.495zM337.625 438.18c40.32 0 73.125-32.4 73.125-72.495 0-40.14-32.805-72.54-73.125-72.54S264.5 325.545 264.5 365.685c0 40.05 32.805 72.45 73.125 72.45z m303.75 0c40.32 0 73.125-32.4 73.125-72.495 0-40.14-32.805-72.54-73.125-72.54s-73.125 32.4-73.125 72.54c0 40.05 32.805 72.45 73.125 72.45z m-303.75-45a27.81 27.81 0 0 1-28.125-27.495c0-15.165 12.51-27.54 28.125-27.54a27.81 27.81 0 0 1 28.125 27.54 27.81 27.81 0 0 1-28.125 27.45z m303.75 0a27.81 27.81 0 0 1-28.125-27.495c0-15.165 12.51-27.54 28.125-27.54a27.81 27.81 0 0 1 28.125 27.54 27.81 27.81 0 0 1-28.125 27.45zM489.5 588.165c40.32 0 73.125-32.4 73.125-72.495S529.82 443.175 489.5 443.175s-73.125 32.4-73.125 72.45c0 40.14 32.805 72.54 73.125 72.54z m0-45a27.81 27.81 0 0 1-28.125-27.495c0-15.12 12.51-27.495 28.125-27.495a27.81 27.81 0 0 1 28.125 27.45 27.81 27.81 0 0 1-28.125 27.54z"  horiz-adv-x="1024" />
      
      <glyph glyph-name="chuangyi" unicode="&#59688;" d="M621.51875 76.575H383.7125c-18.4875 0-33.46875 14.98125-33.46875 33.46875V183.09375c-39.871875 35.2875-158.7375 152.5125-162.46875 298.65-2.2875 89.653125 38.671875 172.2 121.74375 245.353125 2.5125 2.128125 194.353125 159.2625 404.971875 1.6875 6.009375-4.846875 123.009375-101.4375 120.7875-248.353125-1.575-104.2875-62.2125-204.553125-180.28125-298.228125v-72.15c-0.009375-18.496875-14.990625-33.478125-33.478125-33.478125z m-204.3375 66.9375h170.878125V198.5625c0 10.44375 4.875 20.2875 13.18125 26.615625 109.33125 83.325 165.553125 169.340625 167.1 255.675 2.04375 114.178125-94.0875 194.38125-95.053125 195.178125-166.3875 124.44375-314.015625 5.3625-320.221875 0.225-66.721875-58.7625-100.05-123.740625-98.38125-192.553125 3.4125-140.5125 148.40625-257.784375 149.86875-258.95625 7.959375-6.35625 12.628125-16.0125 12.628125-26.19375v-55.040625zM563.50625-36.496875H441.734375c-50.446875 0-91.490625 41.04375-91.490625 91.490625v55.05c0 18.4875 14.98125 33.46875 33.46875 33.46875h237.815625c18.4875 0 33.46875-14.98125 33.46875-33.46875v-55.05c-0.009375-50.446875-41.053125-91.490625-91.490625-91.490625zM417.18125 76.575v-21.58125c0-13.5375 11.015625-24.553125 24.553125-24.553125h121.771875c13.5375 0 24.553125 11.015625 24.553125 24.553125v21.58125H417.18125zM505.465625 356.19375h-0.45a33.471562 33.471562 0 0 0-23.55 10.14375c-40.06875 41.221875-89.015625 91.884375-94.55625 99.121875-11.25 14.6625-8.484375 35.68125 6.178125 46.93125 14.5125 11.1375 35.259375 8.540625 46.575-5.7375 4.78125-5.60625 36.646875-38.775 66.459375-69.590625l62.2875 60.73125c13.2375 12.909375 34.425 12.646875 47.325-0.6 12.909375-13.2375 12.6375-34.425-0.6-47.325l-86.315625-84.159375a33.379688 33.379688 0 0 0-23.353125-9.515625zM502.615625 202.55625c-18.4875 0-33.46875 14.98125-33.46875 33.46875V389.6625c0 18.4875 14.98125 33.46875 33.46875 33.46875s33.46875-14.98125 33.46875-33.46875v-153.6375c0-18.4875-14.98125-33.46875-33.46875-33.46875z"  horiz-adv-x="1024" />
      
      <glyph glyph-name="shoucang" unicode="&#65938;" d="M648.93222 72.908386a85.837555 85.837555 0 0 0-37.931671 8.898926l-101.262359 49.611511a21.246185 21.246185 0 0 1-17.278748 0.593262l-104.376984-42.640686a85.874634 85.874634 0 0 0-117.46582 91.621857l15.869751 111.644439a21.09787 21.09787 0 0 1-4.783172 16.611328L208.917419 395.383209A85.874634 85.874634 0 0 0 259.86377 535.392975l111.236572 19.392242a21.09787 21.09787 0 0 1 14.312439 9.677582l59.326172 95.848846A85.874634 85.874634 0 0 0 593.573486 655.231842l52.651978-99.667969a21.283264 21.283264 0 0 1 13.607941-10.641632l109.530944-26.882171a85.911713 85.911713 0 0 0 41.194611-143.161469l-78.495941-80.943146a21.209106 21.209106 0 0 1-5.895539-16.277618L734.473145 165.234741a86.097107 86.097107 0 0 0-85.503846-92.289276z m-148.315429 105.15564a65.55542 65.55542 0 0 0 28.847351-6.711273L630.652344 121.741241a41.380005 41.380005 0 0 1 59.326172 40.193482l-8.268586 112.460174a65.777893 65.777893 0 0 0 18.316956 50.501404l78.570099 80.943146a41.380005 41.380005 0 0 1-19.837189 69.003754L649.191772 501.725372a65.629578 65.629578 0 0 0-42.344055 33.037262l-52.726135 99.667969A41.380005 41.380005 0 0 1 482.336914 636.840729L423.010742 541.028961a65.55542 65.55542 0 0 0-44.494629-30.070953L267.279541 491.528687a41.380005 41.380005 0 0 1-24.472046-67.483521l72.785797-86.097107a65.814972 65.814972 0 0 0 14.831543-51.613769l-15.869751-111.64444A41.342926 41.342926 0 0 1 371.100342 130.56601l104.414062 42.640686a65.963287 65.963287 0 0 0 24.954071 4.85733zM511.480896 274.32074a110.828705 110.828705 0 0 0-105.081482 75.344238 22.247314 22.247314 0 1 0 42.158661 14.27536 66.445313 66.445313 0 0 1 125.104065-2.150574 22.247314 22.247314 0 1 0 41.639557-15.684356 111.496124 111.496124 0 0 0-103.820801-71.784668z"  horiz-adv-x="1024" />
      
      <glyph glyph-name="wenjian" unicode="&#58903;" d="M673.9 777.4H353.6c-92.9 0-168.2-75.8-168.2-168.2v-452.8c0-92.9 75.8-168.2 168.2-168.2h320.9c92.9 0 168.2 75.8 168.2 168.2V609.2c-0.1 92.4-75.9 168.2-168.8 168.2z m126-621c0-69.2-56.3-125.5-125.5-125.5H353.6c-69.2 0-125.5 56.3-125.5 125.5V609.2c0 69.2 56.3 125.5 125.5 125.5H674c69.5 0 126-56.3 126-125.5v-452.8zM699 572.4h-98.2c-11.8 0-21.4-9.6-21.4-21.4 0-11.8 9.6-21.4 21.4-21.4H699c11.8 0 21.4 9.6 21.4 21.4 0 11.8-9.6 21.4-21.4 21.4zM330.6 529.6h194.9c11.8 0 21.4 9.6 21.4 21.4 0 11.8-9.6 21.4-21.4 21.4H330.6c-11.8 0-21.4-9.6-21.4-21.4 0-11.8 9.6-21.4 21.4-21.4zM699 392.4H330.6c-11.8 0-21.4-9.6-21.4-21.4 0-11.8 9.6-21.4 21.4-21.4H699c11.8 0 21.4 9.6 21.4 21.4 0 11.9-9.6 21.4-21.4 21.4zM699 213H330.6c-11.8 0-21.4-9.6-21.4-21.4 0-11.8 9.6-21.4 21.4-21.4H699c11.8 0 21.4 9.6 21.4 21.4 0 11.9-9.6 21.4-21.4 21.4z"  horiz-adv-x="1024" />
      
      <glyph glyph-name="xiugai" unicode="&#58904;" d="M355.71712 337.03936c-0.512-0.65536-1.04448-1.37216-1.26976-2.23232l-40.18176-148.41856c-2.33472-8.64256 0.06144-17.98144 6.41024-24.53504 4.75136-4.64896 11.01824-7.22944 17.67424-7.22944 2.21184 0 4.42368 0.26624 6.59456 0.86016l146.30912 40.18176c0.22528 0 0.32768-0.22528 0.49152-0.22528 1.69984 0 3.33824 0.63488 4.58752 1.92512l391.168 394.0352c11.63264 11.71456 18.00192 27.68896 18.00192 45.056 0 19.6608-8.2944 39.36256-22.79424 53.94432l-36.94592 37.2736c-14.49984 14.62272-34.05824 22.97856-53.5552 22.97856-17.24416 0-33.0752-6.41024-44.76928-18.10432L356.29056 338.39104C355.88096 338.0224 356.02432 337.46944 355.71712 337.03936L355.71712 337.03936zM849.22368 630.00576l-38.85056-39.1168-62.99648 64.47104 38.31808 38.56384c6.0416 6.12352 17.8176 5.24288 24.73984-1.76128l36.94592-37.29408c3.87072-3.91168 6.08256-9.05216 6.08256-14.15168C853.44256 636.5184 851.92704 632.7296 849.22368 630.00576L849.22368 630.00576zM425.28768 330.83392l282.25536 284.40576 62.99648-64.53248L488.83712 266.89536 425.28768 330.83392 425.28768 330.83392 425.28768 330.83392M373.84192 215.552l20.39808 75.42784 54.39488-54.80448L373.84192 215.552 373.84192 215.552 373.84192 215.552M874.00448 473.84576c-14.82752 0-26.97216-12.14464-27.01312-27.2384l0-326.41024c0-51.95776-51.32288-75.85792-75.63264-75.85792L236.40064 44.3392c-34.0992 0-69.46816 33.71008-75.6736 96.33792L160.72704 637.89056c0 77.80352 56.54528 75.89888 75.6736 75.89888l356.352 0c14.86848 0 26.95168 12.1856 26.95168 27.17696 0 14.97088-12.0832 27.17696-26.95168 27.17696l-360.448 0c-46.63296 0-125.52192-29.22496-125.52192-105.6768l0-525.94688c0-102.83008 64.3072-146.61632 125.52192-146.61632l543.15008 0c69.0176 0 125.5424 43.17184 125.5424 126.13632L900.99712 446.75072C900.89472 461.70112 888.77056 473.84576 874.00448 473.84576L874.00448 473.84576z"  horiz-adv-x="1024" />
      
      <glyph glyph-name="shanchu" unicode="&#58946;" d="M254.398526 91.297588l-0.030699 4.787026C254.367827 94.453465 254.380106 92.86427 254.398526 91.297588zM614.190939 636.963339c-22.116717 0-40.047088-17.910928-40.047088-40.047088l0.37146-502.160911c0-22.097274 17.930371-40.048111 40.047088-40.048111s40.048111 17.950837 40.048111 40.048111l-0.350994 502.160911C654.259516 619.051387 636.328122 636.963339 614.190939 636.963339zM893.234259 755.894032l-318.891887-0.148379-0.178055 41.407062c0 22.13616-17.933441 40.048111-40.067554 40.048111-7.294127 0-14.126742-1.958608-20.017916-5.364171-5.894244 3.405563-12.729929 5.364171-20.031219 5.364171-22.115694 0-40.047088-17.911952-40.047088-40.048111l0.188288-41.463344-230.115981-0.106424c-3.228531 0.839111-6.613628 1.287319-10.104125 1.287319-3.502777 0-6.89913-0.452301-10.136871-1.296529l-73.067132-0.033769c-22.115694 0-40.048111-17.950837-40.048111-40.047088 0-22.13616 17.931395-40.048111 40.048111-40.048111l43.176358 0.020466 0.292666-617.902982 0.059352 0 0-42.551118c0-44.233434 35.862789-80.095199 80.095199-80.095199l40.048111 0 0-0.302899 440.523085 0.25685 0 0.046049 40.048111 0c43.663452 0 79.146595 34.95 80.054267 78.395488l-0.329505 583.369468c0 22.135136-17.930371 40.047088-40.048111 40.047088-22.115694 0-40.047088-17.911952-40.047088-40.047088l0.287549-509.324054c-1.407046-60.314691-18.594497-71.367421-79.993892-71.367421l41.575908-1.022283-454.442096-0.26606 52.398394 1.288343c-62.715367 0-79.305207 11.522428-80.0645 75.308173l0.493234-76.611865-0.543376 0-0.313132 660.818397 236.82273 0.109494c1.173732-0.103354 2.360767-0.166799 3.561106-0.166799 1.215688 0 2.416026 0.063445 3.604084 0.169869l32.639375 0.01535c1.25355-0.118704 2.521426-0.185218 3.805676-0.185218 1.299599 0 2.582825 0.067538 3.851725 0.188288l354.913289 0.163729c22.115694 0 40.050158 17.911952 40.050158 40.047088C933.283394 737.98208 915.349953 755.894032 893.234259 755.894032zM774.928806 80.705346l0.036839-65.715701-0.459464 0L774.928806 80.705346zM413.953452 636.963339c-22.116717 0-40.048111-17.910928-40.048111-40.047088l0.37146-502.160911c0-22.097274 17.931395-40.048111 40.049135-40.048111 22.115694 0 40.047088 17.950837 40.047088 40.048111l-0.37146 502.160911C454.00054 619.051387 436.069145 636.963339 413.953452 636.963339z"  horiz-adv-x="1024" />
      
      <glyph glyph-name="shouqi" unicode="&#59024;" d="M421.376 233.216l57.728-59.2L683.52 384 479.104 594.176l-57.664-59.264 105.536-108.8h-395.52v-84.032h395.456l-105.536-108.8zM785.92 762.24H213.248c-45.184 0-81.856-37.632-81.856-84.032V510.08h81.792V678.208h572.608v-588.224H213.248V257.92H131.392v-168c0-46.464 36.608-84.096 81.792-84.096h572.608c45.12 0.128 81.728 37.76 81.792 84.096v588.16c-0.064 46.4-36.672 83.968-81.792 84.096z"  horiz-adv-x="1024" />
      
      <glyph glyph-name="zhankai" unicode="&#59025;" d="M785.856 762.24H213.248c-45.184 0-81.856-37.632-81.856-84.032V510.08h81.792V678.208h572.608v-588.224H213.248V257.92H131.392v-168c0-46.464 36.608-84.096 81.792-84.096h572.608c45.12 0.128 81.728 37.76 81.792 84.096v588.16c-0.064 46.4-36.672 83.968-81.792 84.096zM683.584 426.048v-84.032H288.128l105.536-108.8-57.728-59.264L131.456 384l204.48 210.048 57.664-59.264-105.536-108.8h395.52z"  horiz-adv-x="1024" />
      
      <glyph glyph-name="zaixiankefu" unicode="&#59010;" d="M512 853.333333c256.9216 0 465.6128-206.4384 469.2992-462.506666 13.994667-20.957867 21.4016-45.636267 21.367467-70.826667v-128c0-94.754133-99.328-156.672-184.388267-114.926933-32.085333-81.373867-116.9408-139.093333-215.8592-141.0048-12.117333-13.653333-29.4912-21.4016-47.752533-21.4016h-64a64 64 0 0 0 0 128h64c18.909867 0 35.908267-8.192 47.650133-21.230934l-4.983467-0.1024c81.7152 0 146.432 55.978667 149.230934 123.460267l0.1024 4.539733v170.666667a128 128 0 0 0 144.1792 126.976C860.842667 629.111467 702.634667 768 512 768S163.191467 629.077333 133.12 446.976a128 128 0 0 0 144.213333-126.976v-128a128 128 0 1 0-256 0v128c0 26.180267 7.850667 50.551467 21.367467 70.826667l-0.034133-6.826667C42.666667 643.208533 252.791467 853.333333 512 853.333333zM149.333333 362.666667c-23.552 0-42.666667-19.114667-42.666666-42.666667v-128a42.666667 42.666667 0 1 1 85.333333 0v128c0 23.552-19.114667 42.666667-42.666667 42.666667z m725.333334 0c-23.552 0-42.666667-19.114667-42.666667-42.666667v-128a42.666667 42.666667 0 1 1 85.333333 0v128c0 23.552-19.114667 42.666667-42.666666 42.666667z m-256 42.666666c23.552 0 42.666667-19.114667 42.666666-42.666666a149.333333 149.333333 0 0 0-298.666666 0 42.666667 42.666667 0 0 0 85.230933 3.208533l0.1024-3.208533a64 64 0 0 1 127.8976-3.754667l0.1024 3.754667c0 23.552 19.114667 42.666667 42.666667 42.666666z"  horiz-adv-x="1024" />
      
      <glyph glyph-name="qqkefu" unicode="&#59014;" d="M903.168 350.651733c-15.6672 41.028267-36.522667 76.970667-57.378133 97.4848 0 25.634133-5.2224 51.3024-20.8896 71.816534C819.677867 689.2544 678.8096 827.733333 506.641067 827.733333S193.604267 689.220267 188.416 519.953067c-5.2224-20.514133-10.4448-46.1824-10.4448-66.696534-20.821333-25.668267-41.710933-56.4224-57.344-102.6048-31.3344-92.330667-26.112-200.055467 46.933333-235.963733-5.2224-10.24-5.2224-20.514133-5.2224-35.908267 0-82.090667 88.6784-138.513067 208.6912-138.513066 52.189867 0 104.3456 10.24 140.868267 35.908266h5.2224c36.522667-20.514133 88.6784-35.908267 140.868267-35.908266 119.978667 0 208.6912 56.4224 208.6912 138.513066 0 10.24 0 20.514133-5.2224 35.908267 67.822933 35.908267 73.045333 143.633067 41.745066 235.963733z m-78.267733-169.301333c-5.2224 0-15.633067 0-20.855467 5.12l-36.522667 20.548267-41.745066-66.696534 31.300266-20.48c15.6672-10.308267 31.300267-20.548267 31.300267-41.0624 0-35.908267-57.378133-66.696533-130.423467-66.696533-41.745067 0-83.490133 10.24-109.568 30.788267l-10.4448 10.24H480.597333l-10.4448-10.24c-20.855467-15.394133-62.600533-25.668267-104.3456-25.668267-73.045333 0-130.423467 30.788267-130.423466 66.696533 0 20.514133 15.633067 30.788267 31.300266 41.028267l31.300267 20.548267-41.745067 66.6624-31.300266-25.634134c-10.4448-5.12-20.855467-5.12-26.077867-5.12-20.8896 10.24-31.300267 71.816533-10.4448 143.633067 10.4448 35.908267 36.522667 66.6624 52.189867 82.056533l10.410666 15.394134v20.514133c0 15.394133 5.2224 30.788267 15.6672 46.1824l5.2224 10.24v15.394133c0 133.393067 109.568 241.117867 239.991467 241.117867 130.423467 0 239.991467-107.7248 239.991467-241.117867v-10.24l5.2224-10.24c10.4448-15.428267 15.6672-30.788267 15.6672-51.336533v-20.48l10.410666-10.274133c15.6672-15.394133 36.522667-46.1824 52.189867-82.090667 20.855467-71.816533 10.4448-138.513067-10.4448-148.753067z"  horiz-adv-x="1024" />
      
      <glyph glyph-name="wenda" unicode="&#59015;" d="M894.088533 629.6576c-17.8176 0-31.573333-14.711467-31.573333-32.597333 0-17.851733 14.779733-32.5632 32.085333-32.5632 17.339733 0 31.573333-14.711467 31.573334-32.597334v-362.018133a31.914667 31.914667 0 0 0-31.573334-32.5632h-32.085333c-17.851733 0-31.607467-14.711467-31.607467-32.597333v-51.473067l-72.840533 74.615467a31.402667 31.402667 0 0 1-22.9376 9.454933H575.6928c-17.851733 0-31.607467-14.711467-31.607467-32.597333 0-17.851733 14.267733-32.5632 31.607467-32.5632h146.193067l117.179733-121.924267c6.144-6.280533 14.267733-9.966933 22.4256-9.966933a34.133333 34.133333 0 0 1 12.219733 2.628266 33.314133 33.314133 0 0 1 19.8656 30.481067l0.512 98.781867h0.512c52.462933 0 95.266133 44.1344 95.266134 98.781866v361.472c0 53.111467-42.8032 97.245867-95.778134 97.245867z m-95.778133-327.8848V728.951467C798.3104 783.0528 755.5072 827.733333 702.532267 827.733333H129.911467C77.448533 827.733333 34.133333 783.598933 34.133333 728.951467v-426.666667c0-54.101333 42.8032-98.781867 95.778134-98.781867h0.512l-0.512-164.4544c0-13.653333 8.157867-25.736533 19.8656-30.481066 4.096-1.570133 7.645867-2.116267 11.707733-2.116267a31.607467 31.607467 0 0 1 23.4496 10.513067l169.130667 186.538666h348.501333c52.9408 0 95.744 44.1344 95.744 98.269867z m-457.489067-32.597333H340.309333c-3.072 0-6.109867-1.024-9.181866-2.082134-1.024-0.512-2.048-0.512-3.072-0.512a23.074133 23.074133 0 0 1-7.099734-5.256533c-1.024-0.546133-2.048-1.058133-2.56-2.116267q-0.512-0.546133-1.024-0.546133l-123.767466-136.055467 0.512 109.294934c0 1.570133 1.024 2.628267 1.024 4.1984a31.914667 31.914667 0 0 1-31.607467 32.5632h-33.621333c-17.339733 0-31.573333 14.711467-31.573334 32.5632V728.951467c0 17.851733 14.2336 32.5632 31.573334 32.5632h573.1328c17.8176 0 31.573333-14.677333 31.573333-32.5632v-426.666667a31.914667 31.914667 0 0 0-31.573333-32.5632H340.821333v-0.546133z m196.130134 281.668266h-78.4384v80.896c0 18.909867-14.779733 34.679467-33.621334 34.679467s-33.621333-15.223467-33.621333-34.679467v-80.896H312.797867a34.133333 34.133333 0 0 1-33.621334-34.679466c0-19.456 14.779733-34.7136 33.621334-34.7136h78.472533V401.066667c0-18.909867 14.779733-34.679467 33.621333-34.679467s33.621333 15.2576 33.621334 34.679467v80.896h78.4384a34.133333 34.133333 0 0 1 33.655466 34.7136c0 19.456-15.291733 34.133333-33.655466 34.133333z"  horiz-adv-x="1024" />
      
      <glyph glyph-name="dianhua1" unicode="&#59016;" d="M351.232 748.509867l87.9616-111.377067c35.5328-46.967467 30.72-111.957333-10.24-152.302933l-25.326933-28.330667 9.659733-14.404267a678.2976 678.2976 0 0 1 63.249067-79.4624l8.430933-9.045333c25.941333-26.487467 56.046933-50.551467 91.579733-74.6496l9.045334-6.007467 25.941333 25.873067c42.154667 42.154667 107.2128 46.967467 153.6 12.049067l112.093867-88.507734 3.003733-3.003733 4.8128-4.8128c48.196267-44.544 48.196267-120.388267 1.2288-167.355733l-9.659733-10.24-15.6672-16.247467-7.850667-7.850667-41.540267-40.277333c-59.665067-57.207467-165.102933-35.566933-288.017066 42.7008l-14.472534 9.045333-14.4384 9.6256-14.472533 10.24-21.7088 16.247467-14.4384 11.434667c-2.389333 1.809067-4.8128 3.618133-7.236267 6.0416l-15.0528 12.014933-7.236266 6.0416-15.0528 13.243733-15.086934 13.243734-7.850666 6.621866-15.018667 13.824-15.086933 14.472534c-4.8128 4.778667-10.24 9.6256-15.0528 14.4384l-15.0528 15.018666-15.086934 15.086934-14.4384 15.018666-14.472533 15.086934-6.621867 7.202133-13.277866 15.0528-13.243734 15.018667-6.621866 7.2704-12.629334 15.018666c-1.8432 2.423467-4.232533 4.846933-6.0416 7.236267l-12.049066 15.0528-11.4688 14.4384-10.820267 14.472533-10.24 14.4384a50.176 50.176 0 0 0-4.846933 7.236267l-9.6256 14.4384c-7.850667 11.434667-15.0528 23.483733-22.289067 34.9184l-7.850667 13.824a1714.0736 1714.0736 0 0 0-18.090666 33.723733l-6.007467 13.243734c-40.379733 87.278933-44.578133 160.768-3.003733 206.506666l2.389333 3.003734 7.236267 8.430933a645.0176 645.0176 0 0 0 71.099733 70.417067l6.621867 5.4272c51.848533 40.311467 127.146667 31.300267 166.2976-19.8656zM231.867733 709.358933l-6.621866-5.393066-5.4272-4.8128c-16.861867-14.472533-35.5328-33.109333-55.432534-56.593067l-2.389333-3.003733-2.389333-3.037867-3.072-3.003733-1.194667-1.194667-0.580267-0.6144-1.194666-1.809067c-15.086933-18.056533-14.472533-55.978667 11.434666-115.575466l3.003734-7.236267 6.0416-12.014933c4.778667-9.6256 10.24-19.285333 15.0528-28.910934l7.850666-13.243733c6.007467-10.24 13.243733-21.060267 19.8656-31.300267l9.6256-13.858133 4.232534-6.007467 10.24-13.858133c3.003733-4.778667 6.621867-9.0112 9.659733-13.243733l10.820267-13.824 11.4688-14.472534 5.4272-6.621866 12.049066-14.4384 5.393067-6.621867 12.663467-14.4384 13.243733-14.4384 6.0416-6.621867 13.243733-14.472533 13.858134-14.4384 14.472533-14.4384 15.0528-14.472533c4.846933-4.778667 9.659733-9.6256 14.472533-13.824l14.472534-13.243734 15.018666-13.243733 6.656-6.0416 14.472534-12.629333 14.4384-12.629334 6.656-5.4272 14.4384-11.434666 6.621866-5.4272 14.472534-10.820267c6.621867-5.4272 13.858133-10.24 19.899733-14.472533l13.243733-9.6256 13.243734-9.0112 13.858133-9.045334c101.239467-64.4096 170.530133-75.844267 194.628267-52.360533l40.379733 39.1168 6.621867 6.621867 16.861866 17.476266 10.24 10.24c17.476267 17.408 17.476267 43.9296 1.194667 58.9824l-2.389333 2.389334-3.003734 3.003733-108.475733 85.504a41.847467 41.847467 0 0 1-52.4288-2.389333l-3.003733-3.037867-25.9072-25.873067a74.9568 74.9568 0 0 0-94.583467-9.6256l-9.659733 6.621867a670.651733 670.651733 0 0 0-103.6288 84.2752l-9.045334 9.6256a786.670933 786.670933 0 0 0-71.68 89.088l-9.659733 14.472533c-19.285333 28.2624-16.247467 66.218667 6.621867 92.091734l25.326933 28.296533 3.003733 3.003733c14.472533 14.4384 16.2816 37.307733 4.232534 52.974934L290.952533 702.737067c-12.629333 17.476267-40.96 21.0944-59.050666 6.621866z m350.685867-75.229866c56.661333 0 101.205333-15.0528 133.154133-46.353067 31.3344-31.300267 46.421333-76.458667 46.421334-133.051733a37.649067 37.649067 0 0 0-75.332267-1.809067v1.809067c0 37.922133-8.430933 63.829333-24.712533 79.4624-15.6672 15.6672-41.5744 24.6784-79.530667 24.6784a37.649067 37.649067 0 0 0 0 75.264z m22.869333 158.9248c90.4192-12.629333 162.7136-45.738667 216.337067-99.328 53.589333-53.589333 86.152533-125.815467 99.396267-216.132267a37.888 37.888 0 0 0-31.914667-42.734933 37.922133 37.922133 0 0 0-42.8032 31.914666c-10.820267 75.229867-36.727467 132.437333-77.7216 173.397334-40.96 40.891733-98.816 67.3792-173.533867 77.6192a37.546667 37.546667 0 0 0-31.914666 42.734933c3.003733 21.0944 21.7088 35.5328 42.1888 32.529067z"  horiz-adv-x="1024" />
      
      <glyph glyph-name="yijian" unicode="&#59017;" d="M810.666667-42.666667H213.333333a128 128 0 0 0-128 128v324.266667a42.666667 42.666667 0 0 0 85.333334 0v-324.266667c0-23.552 19.114667-42.666667 42.666666-42.666666h597.333334c23.552 0 42.666667 19.114667 42.666666 42.666666v335.7696a42.666667 42.666667 0 1 0 85.333334 0v-335.7696a128 128 0 0 0-128-128zM512 128a42.666667 42.666667 0 0 0-35.84 19.626667 42.666667 42.666667 0 0 0 12.356267 58.88l384 250.026666A43.2128 43.2128 0 1 0 919.4496 384l-384-250.436267c-7.168-3.8912-15.291733-5.802667-23.4496-5.563733zM512 128a42.666667 42.666667 0 0 0-22.6304 6.417067l-384 238.933333a42.734933 42.734933 0 0 0 45.226667 72.4992l384-238.933333A42.666667 42.666667 0 0 0 512 128zM853.333333 341.333333c-23.552 0-42.666667 19.114667-42.666666 42.666667V682.666667A39.662933 39.662933 0 0 1 777.386667 725.333333H246.613333a39.697067 39.697067 0 0 1-33.28-42.666666V384a42.666667 42.666667 0 1 0-85.333333 0V682.666667A123.733333 123.733333 0 0 0 246.613333 810.666667h530.773334a123.733333 123.733333 0 0 0 118.613333-128V384c0-23.552-19.114667-42.666667-42.666667-42.666667zM682.666667 554.666667H336.657067a42.666667 42.666667 0 1 0 0 85.333333H682.666667a42.666667 42.666667 0 1 0 0-85.333333z"  horiz-adv-x="1024" />
      
      <glyph glyph-name="jiaocheng" unicode="&#59018;" d="M492.202667 8.533333c-18.6368 0-34.816 4.881067-41.745067 6.997334-52.4288 15.701333-185.344 37.0688-261.393067 2.730666l-6.3488-2.4576c-12.561067-3.925333-50.0736-15.7696-82.602666 8.533334C85.674667 35.0208 68.266667 56.2176 68.266667 95.505067V629.5552l4.642133 11.1616C77.9264 652.731733 127.522133 759.466667 319.761067 759.466667c94.754133 0 155.0336-26.248533 192.273066-54.101334C549.1712 733.184 609.3824 759.466667 704.273067 759.466667c33.348267 0 64.648533-3.345067 93.115733-9.966934 0.3072-0.068267 1.911467-0.4096 3.7888-0.955733 112.981333-27.374933 146.3296-99.669333 149.777067-107.793067l4.676266-11.1616v-535.586133c2.798933-23.722667-5.085867-47.104-21.333333-63.146667-14.404267-14.472533-34.4064-22.254933-57.6512-22.254933-18.773333 0-35.498667 5.051733-41.813333 6.997333-52.4288 15.5648-185.685333 36.7616-261.256534 2.6624l-6.3488-2.491733c-8.669867-2.730667-29.5936-9.352533-52.974933-4.539733-7.236267-1.809067-14.6432-2.730667-22.084267-2.696534z m-195.754667 93.866667c71.850667 0 141.243733-14.677333 172.305067-23.995733 6.3488-1.911467 22.459733-6.724267 32.631466-2.56l11.741867 4.881066 11.8784-4.573866c6.5536-2.4576 17.066667 0.4096 21.981867 1.979733l1.7408 0.682667c98.4064 44.509867 253.269333 14.916267 304.469333-0.273067 4.4032-1.365333 14.165333-4.334933 23.4496-4.334933 4.096 0 9.557333 0.6144 12.458667 3.549866 3.072 3.037867 2.491733 8.021333 2.321066 9.0112l-0.375466 5.051734V616.0384c-3.6864 7.509333-27.7504 50.039467-105.5744 68.846933l-2.082134 0.580267a350.9248 350.9248 0 0 1-79.1552 8.3968c-95.402667 0-144.759467-29.7984-169.3696-54.784l-22.7328-23.1424-22.869333 23.108267c-24.6784 24.9856-74.171733 54.818133-169.472 54.818133-143.906133 0-182.203733-68.164267-186.88-77.789867v-520.567466c0-9.4208 1.8432-15.5648 5.461333-18.261334 6.314667-4.778667 19.933867-0.443733 25.019734 1.160534l0.9216 0.443733c38.673067 17.476267 85.9136 23.552 132.130133 23.552zM374.1696 447.556267H237.090133c-14.813867 0-26.897067 13.994667-26.897066 31.402666s11.946667 31.402667 26.897066 31.402667h137.079467c14.779733 0 26.9312-13.994667 26.9312-31.402667s-12.0832-31.402667-26.965333-31.402666z m0-110.011734H237.090133a27.101867 27.101867 0 0 0-26.9312 27.306667c0 15.086933 12.049067 27.306667 26.9312 27.306667h137.079467c14.848 0 26.897067-12.219733 26.897067-27.306667 0-15.086933-12.049067-27.306667-26.897067-27.306667z m452.334933 108.4416l-98.133333 64.2048-104.106667-59.8016v248.149334h64.580267V562.858667l41.710933 23.9616 31.368534-20.514134V701.952h64.580266v-255.965867zM477.422933 672.256h64.6144v-620.987733h-64.6144V672.256z"  horiz-adv-x="1024" />
      
      <glyph glyph-name="sequn" unicode="&#59020;" d="M732.740267 700.074667C673.143467 760.388267 594.875733 793.6 512.2048 793.6c-82.807467 0-161.0752-33.348267-220.501333-93.866667l-8.942934-9.454933a329.386667 329.386667 0 0 1-84.309333-198.792533l-0.512-8.874667C139.025067 445.6448 102.4 378.948267 102.4 307.541333l0.170667-9.147733c3.413333-78.9504 50.8928-148.48 121.4464-179.2l9.4208-3.857067-27.989334-92.910933c-3.822933-11.332267-1.774933-23.790933 5.4272-33.348267 6.587733-9.284267 17.271467-14.779733 28.672-14.711466 15.496533 0 29.252267 10.069333 33.928534 24.917333l9.284266 28.740267 44.407467 149.060266h-25.019733c-69.495467 0-126.293333 58.709333-126.293334 130.389334l0.238934 8.465066c1.467733 27.306667 11.639467 53.418667 29.013333 74.5472l1.467733 1.706667 1.877334-8.021333c24.3712-94.344533 87.517867-171.7248 173.636266-212.138667l3.584-1.604267-44.100266-148.002133c-3.754667-11.332267-1.809067-23.7568 5.358933-33.314133A35.5328 35.5328 0 0 1 409.6-0.7168l9.3184 28.330667 64.375467 192.136533-19.114667 3.310933c-117.691733 23.893333-200.977067 135.5776-193.809067 260.096a253.201067 253.201067 0 0 0 71.68 162.0992c42.5984 43.6224 98.9184 69.085867 157.696 71.611734h4.9152l4.266667 0.4096h1.6384c132.949333 0 241.425067-112.162133 241.425067-249.412267 0-118.6816-81.7152-221.696-194.56-244.8384l-18.261334-3.413333 64.3072-192.034134 9.216-28.16c4.642133-14.848 18.432-24.951467 34.030934-24.951466 10.752 0 20.992 5.188267 28.842666 13.9264a39.594667 39.594667 0 0 1 6.144 33.723733l-1.365333 4.573867-42.871467 143.36 3.2768 1.467733c86.391467 40.516267 149.6064 117.896533 173.909334 211.968l1.911466 8.157867 1.262934-1.4336c19.080533-23.483733 29.525333-52.804267 29.559466-83.0464 0-71.714133-56.9344-130.389333-126.805333-130.389334l0.8192-0.170666-8.738133 1.024-17.339734 1.262933 42.120534-144.930133h1.160533l11.0592-34.0992a35.84 35.84 0 0 1 63.0784-10.24l2.56 4.266666c4.539733 8.8064 5.597867 19.0464 2.935467 28.672l-28.0576 93.525334 9.216 3.549866c72.874667 30.8224 122.231467 105.813333 122.231466 188.381867l-0.2048 9.454933c-2.9696 66.013867-37.205333 127.0784-91.2384 162.884267l-4.096 2.56a331.3664 331.3664 0 0 1-93.320533 217.156267z m-79.530667-241.8688a35.84 35.84 0 0 1-27.9552 13.482666v0.034134h-0.068267a36.522667 36.522667 0 0 1-34.645333-26.7264l-1.024-4.437334c-6.826667-38.673067-39.7312-67.003733-77.7216-67.003733-36.181333 0-67.1744 25.122133-76.3904 60.689067l-1.365333 6.382933c-3.140267 18.193067-17.8176 31.095467-35.669334 31.095467a35.84 35.84 0 0 1-28.2624-14.267734c-6.894933-8.533333-9.796267-19.6608-7.918933-30.481066 12.356267-72.430933 71.441067-125.815467 141.755733-129.570134l8.738134-0.170666 1.6384 0.273066 1.536 0.580267c72.430933 1.570133 133.3248 55.3984 145.544533 129.399467 1.570133 10.922667-1.365333 22.016-8.192 30.72z"  horiz-adv-x="1024" />
      
      <glyph glyph-name="shiyin" unicode="&#59021;" d="M544.017067 0h128a31.982933 31.982933 0 1 0 0-64h-320a31.982933 31.982933 0 1 0 0 64h128v65.4336c-179.438933 16.1792-320.034133 166.946133-320.034134 350.549333a31.982933 31.982933 0 1 0 64 0 288.017067 288.017067 0 0 1 576 0 31.982933 31.982933 0 1 0 64 0c0-183.6032-140.561067-334.370133-320-350.549333v-65.4336zM512 832a223.982933 223.982933 0 0 0 224.017067-224.017067v-191.965866a223.982933 223.982933 0 1 0-448 0V607.9488A223.982933 223.982933 0 0 0 512 832z m0-64a159.982933 159.982933 0 0 1-160.017067-160.017067v-191.965866a160.017067 160.017067 0 0 1 320.034134 0V607.9488A160.017067 160.017067 0 0 1 512 768z"  horiz-adv-x="1024" />
      
      <glyph glyph-name="guanzhu" unicode="&#59022;" d="M955.392 506.538667l-260.5056 38.1952a40.379733 40.379733 0 0 0-30.276267 22.186666l-116.565333 238.216534a40.072533 40.072533 0 0 1-72.123733 0L359.424 566.920533c-5.870933-11.946667-17.134933-20.2752-30.3104-22.186666l-260.471467-38.229334c-32.9728-4.778667-46.148267-45.704533-22.3232-69.2224l188.586667-185.412266c9.454933-9.352533 13.824-22.7328 11.537067-35.874134l-44.509867-261.802666c-5.700267-33.1776 28.8768-58.402133 58.368-42.837334l232.994133 123.630934a39.8336 39.8336 0 0 0 37.444267 0l22.528-11.946667 0.068267 0.068267q5.12-3.549867 11.0592-5.461334 5.9392-1.877333 12.1856-1.877333 2.013867 0 3.9936 0.2048 1.979733 0.2048 3.959466 0.580267 1.9456 0.4096 3.857067 1.024 1.9456 0.546133 3.754667 1.3312 1.877333 0.785067 3.652266 1.706666 1.7408 0.955733 3.413334 2.082134 1.672533 1.1264 3.208533 2.389333 1.570133 1.297067 2.9696 2.730667 1.399467 1.4336 2.696533 3.003733 1.262933 1.536 2.389334 3.242667 1.092267 1.672533 2.048 3.413333 0.9216 1.809067 1.706666 3.6864 0.750933 1.8432 1.365334 3.7888 0.546133 1.9456 0.955733 3.925333 0.375467 1.979733 0.580267 3.9936 0.2048 1.979733 0.2048 4.027734 0 5.3248-1.365334 10.478933-1.365333 5.12-3.959466 9.762133-2.594133 4.642133-6.280534 8.465067-3.6864 3.7888-8.192 6.5536l0.068267 0.1024-79.701333 44.544a5.666133 5.666133 0 0 1-5.393067 0l-203.434667-107.963733a5.802667 5.802667 0 0 0-8.328533 6.144l38.912 225.518933a5.7344 5.7344 0 0 1-1.672533 5.12l-164.5568 161.792a5.802667 5.802667 0 0 0 3.1744 9.898667l227.4304 33.348266a5.700267 5.700267 0 0 1 4.3008 3.208534l101.717333 207.837866a5.666133 5.666133 0 0 0 10.24 0l101.717333-207.940266c0.785067-1.706667 2.491733-2.935467 4.266667-3.208534l227.4304-33.3824a5.802667 5.802667 0 0 0 3.1744-9.8304l-168.5504-161.792a5.7344 5.7344 0 0 1-1.706667-5.154133l15.2576-88.337067 0.273067 0.034134q0.750933-3.413333 2.048-6.621867 1.3312-3.208533 3.140267-6.178133t4.096-5.563734q2.321067-2.594133 4.983466-4.778666 2.730667-2.184533 5.7344-3.8912 3.003733-1.706667 6.280534-2.833067 3.242667-1.160533 6.656-1.7408 3.413333-0.580267 6.826666-0.580267 2.048 0 3.9936 0.2048 2.013867 0.170667 3.959467 0.580267 1.979733 0.4096 3.8912 0.989867t3.754667 1.365333q1.877333 0.750933 3.618133 1.706667 1.774933 0.955733 3.413333 2.048 1.706667 1.160533 3.242667 2.423466 1.536 1.297067 2.9696 2.730667 1.399467 1.399467 2.6624 2.9696 1.262933 1.570133 2.389333 3.242667 1.1264 1.706667 2.048 3.447466 0.955733 1.809067 1.706667 3.652267 0.785067 1.877333 1.365333 3.7888 0.580267 1.9456 0.955734 3.925333 0.4096 1.979733 0.580266 3.9936 0.2048 2.013867 0.2048 4.027734 0 1.9456-0.170666 3.857066l0.273066 0.068267-5.290666 30.958933c-2.184533 13.141333 2.116267 26.624 11.5712 35.84l188.586666 185.4464c23.995733 23.620267 10.752 64.512-22.2208 69.358934z m-207.394133-600.337067a40.482133 40.482133 0 0 0-31.197867 12.014933l-78.097067 78.779734a41.3696 41.3696 0 0 0 0 58.197333 40.516267 40.516267 0 0 0 57.685334 0l51.643733-52.1216 161.041067 162.474667a40.516267 40.516267 0 0 0 57.685333 0 41.3696 41.3696 0 0 0 0-58.197334l-187.4944-189.1328c-8.567467-8.669867-20.036267-12.663467-31.266133-12.014933z"  horiz-adv-x="1024" />
      
      <glyph glyph-name="huidaodingbu" unicode="&#59023;" d="M512-59.733333C266.922667-59.733333 68.266667 138.922667 68.266667 384S266.922667 827.733333 512 827.733333s443.733333-198.656 443.733333-443.733333-198.656-443.733333-443.733333-443.733333z m0 84.514133c198.382933 0 359.2192 160.836267 359.2192 359.2192 0 198.382933-160.836267 359.2192-359.2192 359.2192C313.617067 743.2192 152.7808 582.382933 152.7808 384c0-198.382933 160.836267-359.2192 359.2192-359.2192z m119.534933 265.9328l-119.569066 119.569067-119.5008-119.569067a42.257067 42.257067 0 0 0-59.733334 59.767467l149.367467 149.4016a42.257067 42.257067 0 0 0 59.8016 0l149.4016-149.367467a42.257067 42.257067 0 0 0-59.767467-59.8016z"  horiz-adv-x="1024" />
      
      <glyph glyph-name="kefu" unicode="&#59008;" d="M765.696 503.936a128 128 0 0 1-83.008-119.872v-42.688a128 128 0 0 1 84.544-120.448c-27.136-55.936-73.152-89.344-122.048-109.44-29.056-11.52-59.52-19.392-90.496-23.168v82.432a42.688 42.688 0 1 1-85.376 0v-128c0-23.616 19.136-42.688 42.688-42.688 35.776 0 100.288 5.824 165.504 32.512 65.536 26.816 134.144 75.84 171.84 162.816l14.848 29.696a128 128 0 0 1 74.496 116.288v42.688a128 128 0 0 1-87.232 121.344 341.376 341.376 0 0 1-678.912 0A128 128 0 0 1 85.312 384v-42.688a128 128 0 0 1 256 0v42.688a128 128 0 0 1-83.008 119.872 256 256 0 0 0 507.392 0z m87.68-119.872v-42.688a42.688 42.688 0 0 0-85.376 0v42.688a42.688 42.688 0 1 0 85.312 0zM256 341.376a42.688 42.688 0 0 0-85.312 0v42.688A42.688 42.688 0 0 0 256 384v-42.688z"  horiz-adv-x="1024" />
      
      <glyph glyph-name="xiazai" unicode="&#59089;" d="M604.285156 223.901733h-61.056518V423.550781c0 3.625488-2.966309 6.591797-6.591797 6.591797h-49.438477c-3.625488 0-6.591797-2.966309-6.591797-6.591797v-199.649048H419.714844c-5.52063 0-8.569336-6.344604-5.19104-10.629272l92.285156-116.757202c2.636719-3.378296 7.745361-3.378296 10.38208 0l92.285156 116.757202c3.378296 4.284668 0.32959 10.629272-5.19104 10.629272zM758.697998 503.723511C720.959961 603.259644 624.802124 674.039063 512.164795 674.039063S303.369629 603.342041 265.631592 503.805908C195.016968 485.26648 142.859375 420.914063 142.859375 344.449219c0-91.049194 73.745728-164.794922 164.712524-164.794922H340.613281c3.625488 0 6.591797 2.966309 6.591797 6.591797v49.438476c0 3.625488-2.966309 6.591797-6.591797 6.591797h-33.041382c-27.767944 0-53.887939 11.04126-73.33374 31.063843-19.363403 19.940186-29.663086 46.801758-28.756714 74.6521 0.741577 21.75293 8.157349 42.1875 21.588135 59.408569 13.760376 17.550659 33.041382 30.322266 54.464722 36.00769l31.228637 8.157349 11.453248 30.157471c7.086182 18.786621 16.973877 36.33728 29.415893 52.23999 12.277222 15.820313 26.861572 29.580688 43.17627 41.116333 33.865356 23.812866 73.745728 36.419678 115.356445 36.419678s81.491089-12.606812 115.356445-36.419678c16.397095-11.535645 30.899048-25.378418 43.17627-41.116333 12.442017-15.90271 22.329712-33.535767 29.415893-52.23999l11.37085-30.075074 31.14624-8.239746C787.289917 431.37854 818.518555 390.756592 818.518555 344.449219c0-27.27356-10.629272-52.981567-29.910279-72.262574-19.281006-19.281006-44.906616-29.910278-72.180175-29.910278H683.386719c-3.625488 0-6.591797-2.966309-6.591797-6.591797v-49.438476c0-3.625488 2.966309-6.591797 6.591797-6.591797h33.041382C807.394897 179.654297 881.140625 253.400024 881.140625 344.449219c0 76.382446-51.992798 140.652466-122.442627 159.274292z"  horiz-adv-x="1024" />
      
      <glyph glyph-name="down" unicode="&#59601;" d="M811.970703 102.75H212.029297c-20.742188 0-37.529297-16.787109-37.529297-37.529297s16.787109-37.529297 37.529297-37.529297h600.029297c20.742188 0 37.529297 16.787109 37.529297 37.529297S832.712891 102.75 811.970703 102.75zM485.457031 201.626953c7.03125-7.03125 16.611328-10.986328 26.542969-10.986328s19.511719 3.955078 26.542969 10.986328l212.167969 212.167969c14.677734 14.677734 14.677734 38.408203 0 52.998047-14.677734 14.677734-38.408203 14.677734-52.998047 0L549.529297 318.609375v384.082031c0 20.742188-16.787109 37.529297-37.529297 37.529297s-37.529297-16.787109-37.529297-37.529297v-384.082031L326.375 466.792969c-14.677734 14.677734-38.408203 14.677734-52.998047 0-14.677734-14.677734-14.677734-38.408203 0-52.998047l212.080078-212.167969z"  horiz-adv-x="1024" />
      
      <glyph glyph-name="zan" unicode="&#59012;" d="M832.739556 461.141333a91.818667 91.818667 0 0 1-72.931556 37.091556h-134.826667c9.955556 46.307556 23.836444 122.254222 16.668445 157.696-6.712889 35.043556-33.28 63.032889-64.227556 68.437333-21.390222 3.754667-63.032889-0.398222-101.091555-69.233778-40.846222-74.695111-127.658667-140.174222-151.438223-156.899555H264.248889C212.707556 498.232889 170.666667 454.030222 170.666667 399.815111v-258.673778C170.666667 86.869333 212.707556 42.666667 264.248889 42.666667h440.035555c44.032 0 81.692444 31.687111 91.192889 76.8l55.523556 258.616889a101.489778 101.489778 0 0 1-18.204445 83.057777zM222.606222 141.084444V399.815111c0 24.177778 18.659556 44.202667 42.040889 44.202667h42.382222v-347.136h-42.780444c-22.983111 0-41.642667 20.024889-41.642667 44.259555z m577.991111 249.059556l-55.466666-258.673778a41.756444 41.756444 0 0 0-40.846223-34.190222H358.570667V456.533333c31.744 22.926222 118.158222 90.510222 162.986666 171.463111 16.213333 29.184 34.076444 45.511111 47.957334 42.951112 11.093333-1.649778 19.797333-14.563556 21.788444-25.827556 5.12-25.884444-11.093333-113.493333-24.177778-167.310222a27.534222 27.534222 0 0 1 4.778667-23.324445 24.746667 24.746667 0 0 1 20.195556-10.467555h167.310222c12.686222 0 24.576-5.859556 32.938666-16.668445 8.305778-10.467556 11.093333-24.234667 8.305778-37.148444z"  horiz-adv-x="1024" />
      
      <glyph glyph-name="mp4" unicode="&#59013;" d="M853.3504 700.9792c40.3968 0 73.1136-32.768 73.1136-73.1136v-487.6288c0-40.3968-32.768-73.1648-73.1136-73.1648H170.6496c-40.3968 0-73.1136 32.768-73.1136 73.1648V627.8656c0 40.3968 32.768 73.1136 73.1136 73.1136h682.7008z m0-73.1136H170.6496v-487.6288h682.7008V627.8656zM439.2448 543.4368c8.4992 0 16.8448-2.2016 24.1664-6.4l194.304-111.0528a48.7424 48.7424 0 0 0 0-84.6336l-194.304-111.0016a48.7424 48.7424 0 0 0-72.9088 42.2912V494.6944c0 26.9312 21.8112 48.7424 48.7424 48.7424z m24.3712-90.7264v-138.0352l120.7808 69.0176L463.6672 452.608z"  horiz-adv-x="1024" />
      
      <glyph glyph-name="play" unicode="&#59011;" d="M512 42.780444c-187.733333 0-341.333333 153.6-341.333333 341.333334s153.6 341.333333 341.333333 341.333333 341.333333-153.6 341.333333-341.333333-153.6-341.333333-341.333333-341.333334z m0 85.333334c140.8 0 256 115.2 256 256s-115.2 256-256 256a256.739556 256.739556 0 0 1-256-256c0-140.8 115.2-256 256-256z m128 256l-213.333333-128v256l213.333333-128z"  horiz-adv-x="1024" />
      
      <glyph glyph-name="zanting" unicode="&#58905;" d="M309.3 765.3h-70.9c-24.3 0-44-19.7-44-44v-674.5c0-24.3 19.7-44 44-44h70.9c24.3 0 44 19.7 44 44V721.3c0 24.3-19.7 44-44 44z m476.3 0h-70.9c-24.3 0-44-19.7-44-44v-674.5c0-24.3 19.7-44 44-44h70.9c24.3 0 44 19.7 44 44V721.3c0 24.3-19.7 44-44 44z"  horiz-adv-x="1024" />
      
      <glyph glyph-name="icon_play" unicode="&#58895;" d="M897.143467 298.948267l-464.648534-311.5264c-46.976-31.488-110.592-18.944-142.08 28.023466A102.4 102.4 0 0 0 273.066667 72.47360000000003V695.5264c0 56.5504 45.8496 102.4 102.4 102.4a102.4 102.4 0 0 0 57.028266-17.348267l464.64-311.5264c46.976-31.488 59.528533-95.104 28.032-142.08a102.4 102.4 0 0 0-28.023466-28.023466z"  horiz-adv-x="1024" />
      
      <glyph glyph-name="yinbo" unicode="&#58953;" d="M73.14432 603.43296c40.3968 0 73.1392-32.74752 73.1392-73.14432v-292.56704c0-40.3968-32.74752-73.14432-73.1392-73.14432C32.74752 164.57728 0 197.3248 0 237.7216V530.28864c0 40.3968 32.74752 73.14432 73.14432 73.14432zM365.71648 896c40.3968 0 73.1392-32.74752 73.1392-73.14432v-877.71136c0-40.3968-32.74752-73.14432-73.1392-73.14432-40.3968 0-73.14432 32.74752-73.14432 73.14432V822.85568C292.57216 863.25248 325.31968 896 365.71648 896z m292.56704-182.85568c40.3968 0 73.14432-32.74752 73.14432-73.14432V128c0-40.3968-32.74752-73.1392-73.14432-73.1392s-73.1392 32.74752-73.1392 73.1392V640c0 40.3968 32.74752 73.14432 73.1392 73.14432z m292.57216-109.71136c40.3968 0 73.14432-32.74752 73.14432-73.14432v-329.1392c0-40.3968-32.74752-73.1392-73.14432-73.1392s-73.1392 32.7424-73.1392 73.1392V530.28864c0 40.3968 32.74752 73.14432 73.1392 73.14432z"  horiz-adv-x="1024" />
      
      <glyph glyph-name="fuzhi" unicode="&#59568;" d="M394.666667 789.333333h448a74.666667 74.666667 0 0 0 74.666666-74.666666v-448a74.666667 74.666667 0 0 0-74.666666-74.666667H394.666667a74.666667 74.666667 0 0 0-74.666667 74.666667V714.666667a74.666667 74.666667 0 0 0 74.666667 74.666666z m0-64a10.666667 10.666667 0 0 1-10.666667-10.666666v-448a10.666667 10.666667 0 0 1 10.666667-10.666667h448a10.666667 10.666667 0 0 1 10.666666 10.666667V714.666667a10.666667 10.666667 0 0 1-10.666666 10.666666H394.666667z m245.333333-597.333333a32 32 0 0 0 64 0v-74.666667a74.666667 74.666667 0 0 0-74.666667-74.666666H181.333333a74.666667 74.666667 0 0 0-74.666666 74.666666V501.333333a74.666667 74.666667 0 0 0 74.666666 74.666667h74.666667a32 32 0 0 0 0-64h-74.666667a10.666667 10.666667 0 0 1-10.666666-10.666667v-448a10.666667 10.666667 0 0 1 10.666666-10.666666h448a10.666667 10.666667 0 0 1 10.666667 10.666666v74.666667z"  horiz-adv-x="1024" />
      
      <glyph glyph-name="nan" unicode="&#58977;" d="M954.418 760.601c0.093 9.733-3.424 19.304-9.797 26.662-6.823 7.866-16.619 12.837-26.993 13.695-0.143 0.016-0.289 0.029-0.432 0.044L684.744 817.837c-22.091 1.596-41.315-15.019-42.918-37.12-1.602-22.105 15.019-41.32 37.124-42.922l144.701-10.482L651.691 556.01c-61.707 55.677-143.442 89.573-233.098 89.573-192.249 0-348.093-155.845-348.093-348.09s155.845-348.091 348.093-348.091c192.243 0 348.087 155.846 348.087 348.091 0 73.632-22.859 141.916-61.868 198.156l161.967 161.355-9.13-130.178c-1.553-22.105 15.116-41.282 37.222-42.834 0.955-0.063 1.905-0.099 2.851-0.099 20.881 0 38.499 16.169 39.983 37.32l16.624 236.958C954.384 758.979 954.408 759.794 954.418 760.601 954.423 760.896 954.418 760.464 954.418 760.601L954.418 760.601zM665.416 193.261c-13.489-31.883-32.813-60.534-57.436-85.16-24.623-24.623-53.272-43.946-85.159-57.436-32.969-13.94-68.036-21.011-104.233-21.011-36.194 0-71.258 7.07-104.228 21.011-31.888 13.489-60.537 32.813-85.161 57.436-24.627 24.626-43.95 53.277-57.435 85.16-13.945 32.969-21.013 68.042-21.013 104.232 0 36.192 7.068 71.259 21.013 104.229 13.485 31.887 32.808 60.537 57.435 85.164 24.624 24.624 53.273 43.947 85.161 57.431 32.97 13.945 68.034 21.014 104.228 21.014 36.197 0 71.264-7.068 104.233-21.014 31.887-13.484 60.536-32.808 85.159-57.431 24.623-24.627 43.946-53.277 57.436-85.164 13.945-32.971 21.014-68.037 21.014-104.229C686.43 261.303 679.361 226.229 665.416 193.261L665.416 193.261zM665.416 193.261"  horiz-adv-x="1024" />
      
      <glyph glyph-name="nv" unicode="&#58954;" d="M153.92-55.67999999999995c-12 0-23.52 4.8-31.68 12.96-18.24 17.76-18.72 46.56-0.96 64.8l60.96 62.88-88.8 70.56c-9.6 7.68-15.84 18.72-16.8 30.72s1.92 24 9.6 33.6c8.64 11.04 22.08 17.28 36 17.28 10.08 0 20.64-3.36 28.32-10.08l96-76.32 71.52 73.92 0.96 0.96 11.52 11.04-9.12 13.44c-52.8 76.8-72.48 169.92-55.68 261.6 30.72 167.04 176.16 288.48 345.6 288.48 21.12 0 42.72-1.92 63.84-5.76 190.56-35.04 317.28-218.88 282.24-409.44-30.72-167.04-176.16-288.48-345.6-288.48-21.12 0-42.72 1.92-63.84 5.76-51.36 9.6-98.4 29.28-140.64 59.52l-13.44 9.6-76.32-78.72L396.8 29.75999999999999c19.68-15.84 23.04-44.64 7.2-64.32-8.64-11.04-22.08-17.28-36-17.28-10.08 0-20.64 3.36-28.32 10.08l-86.4 68.64-67.2-69.12c-7.68-8.64-19.68-13.44-32.16-13.44z m457.44 768.96c-127.2 0-236.64-91.2-259.68-216.48-12.96-69.12 2.4-139.68 42.24-197.76 40.32-58.08 100.32-96.96 169.44-109.92 15.84-2.88 31.68-4.32 48-4.32 127.2 0 236.64 91.2 259.68 216.48 12.96 69.12-2.4 139.2-42.24 197.76-40.32 58.08-100.32 96.96-169.44 109.92-15.84 2.88-32.16 4.32-48 4.32z"  horiz-adv-x="1024" />
      
      <glyph glyph-name="004maikefeng-1" unicode="&#59409;" d="M672.9 799.2H365.3c-54.5 0-98.9-44.4-98.9-98.9v-495.4c0-54.5 44.4-98.9 98.9-98.9h131.8v-114.2H319.8c-12.2 0-22-9.8-22-22s9.8-22 22-22h398.5c12.1 0 21.9 9.8 21.9 22s-9.8 22-22 22H541.1V106h131.8c54.5 0 98.9 44.4 98.9 98.9V700.3c0 54.5-44.4 98.9-98.9 98.9z m0-649.2H365.3c-30.3 0-54.9 24.6-54.9 54.9v53.9h107.3c12.2 0 22 9.8 22 22s-9.8 22-22 22H310.4V430.6h107.3c12.2 0 22 9.8 22 22s-9.8 22-22 22H310.4V602.4h107.3c12.2 0 22 9.8 22 22s-9.8 22-22 22H310.4v53.9c0 30.3 24.6 54.9 54.9 54.9h307.6c30.3 0 54.9-24.6 54.9-54.9v-53.9H620.4c-12.2 0-22-9.8-22-22s9.8-22 22-22h107.4v-127.8H620.4c-12.2 0-22-9.8-22-22s9.8-22 22-22h107.4v-127.8H620.4c-12.2 0-22-9.8-22-22s9.8-22 22-22h107.4v-53.9c0-30.3-24.6-54.9-54.9-54.9z"  horiz-adv-x="1024" />
      
      <glyph glyph-name="dianhua" unicode="&#59587;" d="M742.218667 369.333333c107.637333 0 194.848-87.573333 194.848-195.552V170.666667c0-103.168-93.578667-190.4-190.4-190.4h-45.44a30.4 30.4 0 0 0-2.517334 0.106666c-153.898667 12.778667-312.266667 80.128-411.914666 173.888C169.184 264.917333 86.933333 434.56 86.933333 592.181333c0 113.802667 84.405333 195.552 194.848 195.552 107.626667 0 194.837333-87.573333 194.837334-195.552 0-76.032-44.181333-138.773333-111.701334-169.12a507.658667 507.658667 0 0 1 81.6-100.266666c36.288-34.453333 76.544-62.336 118.752-81.813334 26.304 76.170667 94.186667 128.352 176.96 128.352z"  horiz-adv-x="1024" />
      
      <glyph glyph-name="weixin-copy" unicode="&#58971;" d="M579.867 384.068c-11.67 0-23.344-10.837-23.344-24.178 0-10.839 11.668-21.678 23.344-21.678 17.514 0 30.020 10.839 30.020 21.678 0 13.34-12.505 24.178-30.020 24.178v0zM503.154 496.64c18.345 0 30.020 11.67 30.020 29.185 0 18.345-11.675 29.183-30.020 29.183-17.51 0-34.188-10.839-34.188-29.183-0.001-17.517 16.678-29.185 34.188-29.185v0zM512.326 895.44c-282.655 0-511.788-229.133-511.788-511.788 0-282.653 229.133-511.786 511.788-511.786 282.653 0 511.786 229.133 511.786 511.786 0.001 282.655-229.132 511.788-511.786 511.788v0zM415.602 253.991c-30.855 0-53.369 4.999-82.553 13.341l-84.218-42.53 24.186 71.715c-59.204 41.689-94.228 94.221-94.228 158.428 0 113.403 106.733 200.123 236.814 200.123 115.069 0 217.633-68.377 237.644-165.106-8.338 1.671-15.844 2.502-22.514 2.502-113.403 0-200.954-85.049-200.954-187.613 0-17.508 2.502-33.351 6.671-50.030-6.671-0.829-14.178-0.829-20.849-0.829v0zM763.314 172.276l16.674-60.041-63.371 35.854c-24.18-4.999-47.529-12.505-71.709-12.505-111.737 0-200.123 76.711-200.123 171.769 0 95.058 88.388 171.771 200.123 171.771 105.895 0 200.954-76.713 200.954-171.771 0-53.362-35.854-100.891-82.548-135.078v0zM338.053 555.008c-17.51 0-35.854-10.839-35.854-29.183 0-17.516 18.343-29.19 35.854-29.19 16.679 0 30.020 11.675 30.020 29.19 0 18.343-13.341 29.183-30.020 29.183v0zM710.783 384.068c-12.51 0-23.349-10.837-23.349-24.178 0-10.839 10.839-21.678 23.349-21.678 16.674 0 29.183 10.839 29.183 21.678 0 13.34-12.509 24.178-29.183 24.178v0zM710.783 384.068z"  horiz-adv-x="1024" />
      
      <glyph glyph-name="quanbu" unicode="&#59002;" d="M58.496 791.04c0 24.32 19.712 43.968 44.032 43.968h315.968c24.32 0 44.032-19.712 44.032-44.032v-315.968c0-24.32-19.712-44.032-44.032-44.032H102.528a44.032 44.032 0 0 0-44.032 44.032V790.976z m88-44.032v-228.032h228.032V747.008H146.496z m417.984 43.968c0 24.32 19.712 44.032 44.032 44.032h315.968c24.32 0 44.032-19.712 44.032-44.032v-315.968c0-24.32-19.712-44.032-44.032-44.032H608.512a44.032 44.032 0 0 0-44.032 44.032V790.976z m88-43.968v-228.032h228.032V747.008h-228.032zM58.56 286.976c0 24.32 19.648 44.032 43.968 44.032h315.968c24.32 0 44.032-19.712 44.032-44.032v-315.968c0-24.32-19.712-44.032-44.032-44.032H102.528a44.032 44.032 0 0 0-44.032 44.032V286.976z m87.936-43.968v-228.032h228.032v228.032H146.496z m417.984 43.968c0 24.32 19.712 44.032 44.032 44.032h315.968c24.32 0 44.032-19.712 44.032-44.032v-315.968c0-24.32-19.712-44.032-44.032-44.032H608.512a44.032 44.032 0 0 0-44.032 44.032V286.976z m88-43.968v-228.032h228.032v228.032h-228.032z"  horiz-adv-x="1024" />
      
      <glyph glyph-name="a-zu2716" unicode="&#59005;" d="M950.784-3.584l-168.448 167.936a408.9856 408.9856 0 0 1 99.84 268.8c0 110.08-43.008 212.992-120.32 290.816A407.04 407.04 0 0 1 471.552 844.8c-110.08 0-212.992-43.008-290.816-120.32a409.3952 409.3952 0 0 1-120.832-291.328c0-110.08 43.008-212.992 120.32-290.816a408.576 408.576 0 0 1 290.816-120.32c90.624 0 177.152 29.184 248.32 82.944l169.984-169.984c8.192-8.192 19.456-12.8 30.72-12.8a43.5712 43.5712 0 0 1 30.72 74.24zM146.432 433.152c0 179.2 145.92 324.608 324.608 324.608 179.2 0 324.608-145.92 324.608-324.608 0-179.2-145.408-324.608-324.608-324.608s-324.608 145.92-324.608 324.608z"  horiz-adv-x="1024" />
      
    </font>
</defs>
</svg>
